アットウィキロゴ
DEATH WORMHOLE
SOUND HOLIC feat.Nana Takahashi

EXTREME

Level: 9.2
BPM: 137
Notes: 730

1
口口口口 |----|
口口口口 |----|
口口口口 |----|
口口口口 |----|
2
口口口口 |----|
口口口口 |----|
口口口口 |----|
口口口口 |----|
3
口口⑤口 |①---|
④①口③ |②-③-|
①②①口 |--④-|
口①口口 |⑤---|
4
口口口口 |----|
口口口口 |----|
口口口口 |----|
口口口口 |----|
5
⑤口口④ |①---|
③口①口 |②-③-|
口①②口 |--④-|
口口口口 |--⑤-|
6
口口口口 |--①-|
口口口口 |②---|
口口①口 |----|
口②口口 |----|
7
口口口口 |①---|
口口口口 |②---|
③④④③ |③---|
①②②① |④---|
8
③④④③ |①---|
①②②① |②---|
口口口口 |③---|
口口口口 |④---|
9
口口口口 |①-②-|
②口口① |③-④-|
④⑧⑦③ |⑤-⑥-|
⑥口口⑤ |⑦-⑧-|
10
口⑧①口 |①②③④|
②⑥⑦口 |⑤⑥⑦⑧|
口口口⑤
口④③口

⑫口⑬⑨
口⑯口口
⑭口⑪口 |⑨⑩⑪⑫|
⑩口口⑮ |⑬⑭⑮⑯|
11
口口口口 |①---|
③②①口 |----|
口①口① |--②-|
③②①口 |③---|
12
口①口① |①-②-|
口③③④ |③-④-|
口口口②
口口口口

口口⑦⑧
口口口口
口⑤口口 |⑤-⑥-|
口⑦⑥⑤ |⑦-⑧-|
13
⑦口口口 |①-②-|
⑤口④② |③-④-|
③⑧③口 |⑤-⑥-|
①⑦⑥口 |⑦-⑧-|
14
口①口① |①-②-|
口③③④ |③-④-|
口口②口
口口口口

口口口口
口口口口
口⑤⑦⑧ |⑤-⑥-|
口⑦⑥口 |⑦-⑧-|
15
⑥口口⑦ |①-②-|
⑤口②④ |③-④-|
③⑦⑥口 |⑤---|
①口③⑤ |⑥-⑦-|
16
⑧⑦①口 |①-②-|
④③③口 |③-④-|
②口⑤口 |⑤-⑥-|
⑥①⑦口 |⑦-⑧-|
17
口口口⑥ |①-②-|
③⑤口⑤ |③-④-|
②④⑦③ |⑤---|
口口⑥① |⑥-⑦-|
18
①口①口 |①-②-|
④③③口 |③-④-|
口②口口
口口口口

口口口口
口口口口
⑧⑦⑤口 |⑤-⑥-|
口⑥⑦口 |⑦-⑧-|
19
③⑥⑥② |①-②-|
口⑤口口 |③-④-|
口口⑤口 |⑤---|
④⑥⑥① |⑥---|
20
口⑦口⑤ |--①-|
①②③④ |②-③-|
⑧口⑥口 |④-⑤⑥|
口口口口 |-⑦⑧-|
21
⑥口口⑤ |①-②-|
①⑦③口 |③-④-|
口②⑦④ |--⑤-|
⑤口口⑥ |⑥⑦--|
22
⑦①③⑥ |--①-|
③⑤口① |②-③-|
②⑤⑥④ |④-⑤⑥|
口④②口 |--⑦-|
23
⑦⑥口口 |--①-|
口⑤①口 |②-③④|
⑤口⑤④ |--⑤-|
②⑤③口 |⑥-⑦-|
24
口⑤口口 |①-②-|
口④③② |③-④⑤|
口①口口
口口口口

⑥口⑧口
口口口口
口⑦口口 |--⑥-|
口口口口 |⑦-⑧-|
25
④④口⑤ |--①-|
口③⑥① |②-③-|
口⑥②口 |--④-|
⑤口④④ |⑤⑥--|
26
口③①口 |--①-|
①口口③ |②-③-|
口口口②
口②口口

⑥口⑦⑧
口口⑤口
④⑥⑤口 |④-⑤⑥|
口口④口 |--⑦⑧|
27
口口⑥口 |--①-|
口①⑤口 |②-③④|
口⑤⑦⑤ |--⑤-|
④③⑤② |⑥-⑦-|
28
口④口① |①-②-|
③②③口 |③-④-|
①口口口
口口口口

⑤口⑤口
口⑨口⑥
⑥口⑨口 |⑤-⑥⑦|
⑧⑦⑦⑧ |-⑧⑨-|
29
⑨③口① |①-②-|
口⑨⑤⑧ |③-④⑤|
⑨④⑨② |⑥⑦-⑧|
⑥⑦⑥口 |⑨---|
30
口③④③ |①-②-|
口口②口 |③-④-|
口①口①
口口口口

口口口口
⑥⑤⑨⑥
口⑨⑤口 |⑤⑥-⑦|
⑧⑦⑦⑧ |-⑧⑨-|
31
①⑧③⑨ |①-②-|
⑧⑤⑨口 |③-④⑤|
②⑧④⑨ |⑥⑦-⑧|
口⑥⑦⑥ |--⑨-|
32
⑦口口⑤ |--①-|
口口⑥口 |②-③-|
口口口口 |④-⑤⑥|
①②③④ |-⑦--|
33
⑦⑤④⑥ |①-②-|
口⑧口③ |③④-⑤|
①②⑧⑤ |--⑥-|
⑥口口⑦ |⑦⑧--|
34
⑦①③⑥ |--①-|
③⑤口① |②-③-|
②⑤⑥④ |④-⑤⑥|
口④②口 |--⑦-|
35
⑦⑥口口 |--①-|
口⑤①口 |②-③④|
⑤口⑤④ |--⑤-|
②⑤③口 |⑥-⑦-|
36
口口口口 |①-②-|
口⑥⑤③ |③-④-|
口①⑦口 |⑤-⑥⑦|
⑧⑧④② |--⑧-|
37
①②②① |①-②-|
口④口口 |③-④⑤|
③口⑤③
口口口④

口口口⑨
⑦口⑦⑥
口口口口 |⑥-⑦-|
⑧⑥⑧口 |⑧-⑨-|
38
口②⑧⑧ |①-②-|
⑥口④口 |③-④-|
口③口① |⑤-⑥-|
⑦口⑤口 |⑦-⑧-|
39
①①口口 |①-②-|
口口②口 |③-④-|
口③口口
口口④口

⑪口口⑫
⑨口口⑩
⑦口口⑧ |⑤⑥⑦⑧|
⑤口口⑥ |⑨⑩⑪⑫|
40
口①①口 |①---|
口⑤⑤口 |②-③-|
口③③口 |--④-|
④②②④ |⑤---|
41
①口口① |①-②-|
口口口③ |--③-|
口②②口
口③口口

⑥④口口
口口⑤口
⑤口口口 |④-⑤-|
⑥口④口 |⑥---|
42
口口口口 |①---|
口①口口 |②---|
口口②④ |③---|
口①②③ |④---|
43
口口②口 |①---|
③口口① |--②③|
口口口口
口口口口

口口口口
口口⑤⑥
口口口口 |④-⑤-|
口④⑤⑥ |⑥---|
44
①①口口 |①---|
口口口口 |②---|
口口口口
②②口口

⑥口③⑤
口③④③
口⑤③口 |③④-⑤|
口口口口 |--⑥-|
45
口④⑤⑦ |①-②-|
⑤⑦⑥⑤ |③-④-|
②⑨⑧③ |⑤⑥-⑦|
口①⑤口 |--⑧⑨|
46
①①口口 |①---|
口口口口 |②---|
口口口口
②②口口

⑥口③⑤
口③④③
口⑤③口 |③④-⑤|
口口口口 |--⑥-|
47
⑦⑥②口 |①-②-|
⑤③口⑤ |③④-⑤|
⑦⑥④口 |--⑥-|
口①口③ |⑦---|
48
口口①① |①---|
口口口口 |②---|
口口口口
口口②②

⑤③口⑥
③④③口
口③⑤口 |③④-⑤|
口口口口 |--⑥-|
49
⑦⑤④⑧ |①-②-|
⑤⑥⑦⑤ |③-④-|
③口口② |⑤⑥-⑦|
口⑤①口 |--⑧-|
50
口口口口 |①-②-|
口④口② |③-④⑤|
③⑤①口
口③口①

⑨口⑧⑦
⑨口口口
口口⑩⑩ |⑥⑦⑧-|
口口⑥口 |⑨-⑩-|
51
口⑤⑨口 |①-②-|
口⑥③① |③-④-|
口⑦口⑨ |⑤⑥⑦⑧|
口⑧④② |⑨---|
52
口②口② |①---|
③口口口 |②-③-|
②口②口
口口①①

⑦⑧⑦⑧
口口口⑤
口口口口 |④-⑤-|
④口口⑥ |⑥-⑦⑧|
53
口口口口 |--①-|
口②③口 |--②③|
口①②①
①口①口

口④口④
⑦口口口
口⑤口⑤ |--④-|
口口⑦⑥ |⑤-⑥⑦|
54
④⑦①⑤ |--①-|
口口口口 |②-③④|
口口④③ |--⑤-|
⑥②口⑦ |⑥-⑦-|
55
口口口④ |①-②-|
①口②口 |③-④-|
口③口③
口口①口

⑤⑤口口
⑦⑥口口
口口⑧口 |⑤-⑥-|
⑦⑥口口 |⑦-⑧-|
56
口③①① |①-②-|
⑦口⑤⑤ |③-④-|
②口⑧口 |⑤-⑥-|
口⑥口④ |⑦-⑧-|
57
③⑤口③ |①-②-|
口口④口 |③-④⑤|
口④⑥⑤ |----|
①口②口 |--⑥-|
58
①⑤④① |①-②-|
③口口③ |③-④⑤|
口口口口
口②口口

⑨口口口
口⑩⑨口
口⑧⑦口 |⑥⑦⑧-|
⑥⑩⑥口 |⑨-⑩-|
59
口口③① |①-②-|
口口口⑤ |③-④⑤|
②口口④
口口③①

口⑥口口
⑩⑧⑩口
⑨⑦⑨口 |⑥⑦⑧-|
口⑥口口 |⑨-⑩-|
60
①口口① |①-②-|
口口口口 |③-④⑤|
口⑤④口
③口②③

⑪⑨⑧⑪
⑦口口⑥
口口口口 |⑥⑦⑧⑨|
口⑩⑩口 |⑩-⑪-|
61
口③口口 |--①-|
③口③口 |②-③-|
①③口①
②口口②

口口口⑤
口④口口
口口口⑤ |--④-|
口④口口 |⑤---|
62
①口①口 |①-②-|
④③③口 |③-④-|
②口口口
口口口口

⑧⑦口口
口口口口
口口⑤口 |⑤-⑥-|
⑤⑥⑦口 |⑦-⑧-|
63
口口口⑦ |①-②-|
②④口⑤ |③-④-|
口③⑧③ |⑤-⑥-|
口⑥⑦① |⑦-⑧-|
64
①口①口 |①-②-|
④③③口 |③-④-|
口②口口
口口口口

口口口口
口口口口
⑧⑦⑤口 |⑤-⑥-|
口⑥⑦口 |⑦-⑧-|
65
⑦口口⑥ |①-②-|
④②口⑤ |③-④-|
口⑥⑦③ |⑤---|
⑤③口① |⑥-⑦-|
66
口①⑦⑧ |①-②-|
口③③④ |③-④-|
口⑤口② |⑤-⑥-|
口⑦①⑥ |⑦-⑧-|
67
⑥口口口 |①-②-|
⑤口⑤③ |③-④-|
③⑦④② |⑤---|
①⑥口口 |⑥-⑦-|
68
口①口① |①-②-|
口③③④ |③-④-|
口口②口
口口口口

口口口口
口口口口
口⑤⑦⑧ |⑤-⑥-|
口⑦⑥口 |⑦-⑧-|
69
③⑥⑥③ |①-②-|
⑤⑤④口 |③-④-|
口②⑤⑤ |⑤---|
①⑥⑥① |⑥---|

accuracy: 99.5%
最終更新:2024年09月08日 16:28