アットウィキロゴ
マツヨイナイトバグ
ビートまりおとまろん

BASIC

Level: 5
BPM: 190
Notes: 386

1
口口口口 |----|
口口口口 |----|
口口口口 |----|
口口口口 |----|
2
口口口口 |①---|
①②③口 |②---|
口④④口 |③---|
口口口口 |④---|
3
口②④口 |①---|
口口口口 |②---|
①口口③ |③---|
口口口口 |④---|
4
口口口口 |①---|
①口口③ |②---|
口②④口 |③---|
口口口口 |④---|
5
②口口④ |①---|
口口口口 |②---|
①口口③ |③---|
口口口口 |④---|
6
口③③口 |①---|
①口口② |②---|
口口口口 |③---|
口口口口 |----|
7
②口口④ |①---|
口口口口 |②---|
口①③口 |③---|
口口口口 |④---|
8
口口口口 |①---|
①②③④ |②---|
口口口口 |③---|
口口口口 |④---|
9
口口口口 |①---|
口②②口 |----|
口①①口 |②---|
口口口口 |----|
10
①口口① |①---|
②口口② |②---|
③口口③ |③---|
口口口口 |----|
11
口①口口 |①---|
口口②口 |----|
口口口口 |②---|
口口口口 |----|
12
口口口口 |①---|
口口口口 |----|
口①口口 |②---|
口口②口 |----|
13
口口口口 |①---|
口口口口 |----|
口口口② |②---|
①口口口 |----|
14
口口口② |①---|
①口口口 |----|
口口口口 |②---|
口口口口 |----|
15
口口口口 |①---|
口口口口 |----|
口口②口 |②---|
口①口口 |----|
16
口口②口 |①---|
口①口口 |----|
口口口口 |②---|
口口口口 |----|
17
①口口① |①---|
②口口② |----|
口口口口 |②---|
口口口口 |----|
18
口口口口 |①---|
口口口口 |----|
①口口① |----|
口口口口 |----|
19
口口口口 |①---|
口口②口 |----|
口①口口 |②---|
口口口口 |----|
20
③口口口 |①---|
②口口口 |②---|
①口口口 |③---|
口口口口 |----|
21
口口口口 |①---|
口②口口 |----|
口口①口 |②---|
口口口口 |----|
22
口口口③ |①---|
口口口② |②---|
口口口① |③---|
口口口口 |----|
23
口口口口 |①---|
口口②口 |----|
口①口口 |②---|
口口口口 |----|
24
口口口口 |①---|
口②口口 |----|
口口①口 |②---|
口口口口 |----|
25
②口口② |①---|
口口口口 |----|
①口口① |②---|
口口口口 |----|
26
口④④口 |①---|
口③③口 |②---|
口②②口 |③---|
口①①口 |④---|
27
口口口口 |①---|
口②口口 |----|
①口口① |②---|
口口口口 |----|
28
口口口口 |①---|
口口①② |----|
口口口口 |②---|
口口口口 |----|
29
④口口口 |①---|
③口口口 |②---|
②口口口 |③---|
①口口口 |④---|
30
口口①口 |①---|
口②②口 |----|
口②②口 |②---|
口口口口 |----|
31
口口口口 |①---|
口口②口 |----|
①口口① |②---|
口口口口 |----|
32
口口口口 |①---|
②①口口 |----|
口口口口 |②---|
口口口口 |----|
33
口口口④ |①---|
口口口③ |②---|
口口口② |③---|
口口口① |④---|
34
口①口口 |①---|
口②②口 |----|
口②②口 |②---|
口口口口 |----|
35
口口口口 |①---|
口②口口 |----|
①口口① |②---|
口口口口 |----|
36
口口口口 |①---|
口口①② |----|
口口口口 |②---|
口口口口 |----|
37
④口口口 |①---|
③口口口 |②---|
②口口口 |③---|
①口口口 |④---|
38
口口①口 |①---|
口②②口 |----|
口②②口 |②---|
口口口口 |----|
39
口口口口 |①---|
口口②口 |----|
①口口① |②---|
口口口口 |----|
40
口口口口 |①---|
②①口口 |----|
口口口口 |②---|
口口口口 |----|
41
口①口口 |①---|
口口口口 |----|
口口②口 |②---|
口口口口 |----|
42
③口口③ |①---|
②口口② |②---|
①口口① |③---|
口口口口 |----|
43
口口口口 |----|
口口口口 |----|
口口口口 |----|
口口口口 |----|
44
口口口口 |①---|
口口②口 |----|
口口口口 |②---|
口①口口 |----|
45
口口口口 |①---|
③③口口 |②---|
口②口口 |③---|
口①口口 |----|
46
口口口口 |①---|
口口③③ |②---|
口口②口 |③---|
口口①口 |----|
47
口口口口 |①---|
口口口口 |②---|
③口口④ |③---|
①口口② |④---|
48
口口口口 |①---|
口③③口 |②---|
口②②口 |③---|
口①①口 |----|
49
口口③③ |①---|
口口口② |②---|
口口口① |③---|
口口口口 |----|
50
③③口口 |①---|
②口口口 |②---|
①口口口 |③---|
口口口口 |----|
51
口口口口 |①---|
口①①口 |----|
口②②口 |②---|
口口口口 |----|
52
口口口口 |①---|
③口口③ |②---|
②口口② |③---|
①口口① |----|
53
③③口口 |①---|
口②口口 |②---|
口①口口 |③---|
口口口口 |----|
54
口口③③ |①---|
口口②口 |②---|
口口①口 |③---|
口口口口 |----|
55
口口口口 |①---|
①口口② |②---|
③口口④ |③---|
口口口口 |④---|
56
口③③口 |①---|
口②②口 |②---|
口①①口 |③---|
口口口口 |----|
57
口口口口 |①---|
口口③③ |②---|
口口口② |③---|
口口口① |----|
58
口口口口 |①---|
③③口口 |②---|
②口口口 |③---|
①口口口 |----|
59
①口口① |①---|
口口口口 |----|
②口口② |②---|
口口口口 |----|
60
口口④口 |①---|
口③口口 |②---|
口口②口 |③---|
口①口口 |④---|
61
①口口② |①---|
①口口② |----|
口口口口 |②---|
口口口口 |----|
62
口口口口 |①---|
口口口口 |②---|
①②③口 |③---|
口口口口 |----|
63
口口口口 |①---|
②②①① |----|
口口口口 |②---|
口口口口 |----|
64
④③②① |①---|
口口口口 |②---|
口口口口 |③---|
口口口口 |④---|
65
口口口口 |①---|
口口口② |----|
口①①口 |②---|
口口口口 |----|
66
口口口口 |①---|
口口口口 |----|
②口口口 |②---|
口①口口 |----|
67
口口口口 |①---|
①②③④ |②---|
口口口口 |③---|
口口口口 |④---|
68
口④④口 |①---|
口③③口 |②---|
口②②口 |③---|
口①①口 |④---|
69
①口口① |①---|
口口口口 |----|
口口口② |②---|
口口口口 |----|
70
口口口口 |①---|
①②③④ |②---|
口口口口 |③---|
口口口口 |④---|
71
口①①口 |①---|
口口口口 |----|
口②②口 |②---|
口口口口 |----|
72
口口口口 |①---|
口③②① |②---|
口口口口 |③---|
口口口口 |----|
73
口口口口 |①---|
口口口口 |②---|
口口口口 |③---|
①②③④ |④---|
74
口口口口 |①---|
口口口口 |②---|
④③②① |③---|
口口口口 |④---|
75
口口口口 |①---|
①②③④ |②---|
口口口口 |③---|
口口口口 |④---|
76
口口口口 |①---|
口口②口 |----|
口口口口 |②---|
口①口口 |----|
77
②口口② |----|
口口口口 |----|
①口口① |①---|
口口口口 |②---|
78
口口口口 |①---|
③③口口 |②---|
口②口口 |③---|
口①口口 |----|
79
口口口口 |①---|
口口③③ |②---|
口口②口 |③---|
口口①口 |----|
80
口口口口 |①---|
口口口口 |②---|
③口口④ |③---|
①口口② |④---|
81
口口口口 |①---|
口③③口 |②---|
口②②口 |③---|
口①①口 |----|
82
口口③③ |①---|
口口口② |②---|
口口口① |③---|
口口口口 |----|
83
③③口口 |①---|
②口口口 |②---|
①口口口 |③---|
口口口口 |----|
84
口口口口 |①---|
口①①口 |----|
口②②口 |②---|
口口口口 |----|
85
①口口① |①---|
②口口② |②---|
③口口③ |③---|
口口口口 |----|
86
③③口口 |①---|
口②口口 |②---|
口①口口 |③---|
口口口口 |----|
87
口口③③ |①---|
口口②口 |②---|
口口①口 |③---|
口口口口 |----|
88
口口口口 |①---|
①口口② |②---|
③口口④ |③---|
口口口口 |④---|
89
口③③口 |①---|
口②②口 |②---|
口①①口 |③---|
口口口口 |----|
90
口口口口 |①---|
口口③③ |②---|
口口口② |③---|
口口口① |----|
91
口口口口 |①---|
③③口口 |②---|
②口口口 |③---|
①口口口 |----|
92
①口口① |①---|
口口口口 |----|
②口口② |②---|
口口口口 |----|
93
口口④口 |①---|
口③口口 |②---|
口口②口 |③---|
口①口口 |④---|
94
口②④口 |①---|
口口口口 |②---|
①口口③ |③---|
口口口口 |④---|
95
口口口口 |①---|
①口口③ |②---|
口②④口 |③---|
口口口口 |④---|
96
②口口④ |①---|
口口口口 |②---|
①口口③ |③---|
口口口口 |④---|
97
口③③口 |①---|
①口口② |②---|
口口口口 |③---|
口口口口 |----|
98
②口口④ |①---|
口口口口 |②---|
口①③口 |③---|
口口口口 |④---|
99
口口口口 |①---|
①②③④ |②---|
口口口口 |③---|
口口口口 |④---|
100
口口口口 |①---|
口②②口 |----|
口①①口 |②---|
口口口口 |----|
101
①口口① |①---|
②口口② |②---|
③口口③ |③---|
口口口口 |----|
102
口口④口 |①---|
口③口口 |②---|
口口②口 |③---|
口①口口 |④---|
103
②口口② |--①-|
口口口口 |---②|
①口口① |----|
口口口口 |----|

accuracy: 99.5%
最終更新:2024年09月08日 17:30