アットウィキロゴ
マツヨイナイトバグ
ビートまりおとまろん

ADVANCED

Level: 9.1
BPM: 190
Notes: 910

1
口口口口 |----|
口口口口 |----|
口口口口 |----|
口口口口 |----|
2
口③口口 |①---|
口口④① |②--③|
⑤⑥⑦② |④-⑤⑥|
口口口口 |⑦---|
3
①⑧⑦⑥ |①-②-|
口①口④ |③-④-|
⑤口⑨② |⑤-⑥⑦|
口③口口 |⑧-⑨-|
4
④口口③ |①---|
①④③② |②---|
⑥口口⑤ |③-④-|
①⑥⑤② |⑤-⑥-|
5
口口口口 |--①-|
⑥口⑤① |②-③-|
口②口口 |④-⑤-|
④⑥口③ |--⑥-|
6
口口口口 |--①②|
口⑤⑤口 |③-④-|
①②③口 |⑤---|
口口口④ |----|
7
①⑧⑦⑥ |①-②-|
口口口④ |③-④-|
⑤口⑨② |⑤-⑥⑦|
口③口口 |⑧-⑨-|
8
④口口③ |①---|
①④③② |②---|
⑥口口⑤ |③-④-|
①⑥⑤② |⑤-⑥-|
9
口①①口 |①---|
口③③口 |--②-|
口②②口 |③---|
④口口④ |--④-|
10
口③②① |--①②|
⑤口口⑤ |③-④-|
口口口口 |⑤---|
口④④口 |----|
11
口口口② |①---|
③⑤口口 |②---|
口③②口 |③---|
①口④口 |④-⑤-|
12
口①①口 |----|
口口口口 |①---|
口②②口 |②---|
③口口口 |③---|
13
口口⑥口 |①---|
②③④⑥ |②-③-|
⑤口口口 |④---|
口⑤口① |⑤-⑥-|
14
口口口口 |----|
口口口口 |①---|
口①①口 |②---|
②口口③ |③---|
15
口口口口 |①---|
口⑤②② |②---|
④口③③ |③---|
口①口口 |④-⑤-|
16
①口口① |--①-|
②口口② |②---|
口④口口 |③---|
口口③口 |④---|
17
①口口① |①---|
口②②④ |②---|
③口口③ |③---|
口⑤口口 |④-⑤-|
18
⑦⑥⑤④ |--①-|
①③口口 |--②③|
口口②口 |④-⑤-|
口口口口 |⑥-⑦-|
19
口⑤⑤口 |①---|
②④④口 |②---|
口口口③ |③---|
口②③① |④-⑤-|
20
口口口① |----|
口口口口 |①---|
口口口口 |②---|
③口②③ |③---|
21
口④⑥口 |①---|
①口口① |②-③-|
⑤口③口 |④---|
口②口口 |⑤-⑥-|
22
②⑤口② |--①-|
③①①口 |②---|
口口口④ |③-④-|
口口⑥口 |⑤-⑥-|
23
口口口⑤ |①---|
口①④口 |②---|
②③口口 |③---|
②③口口 |④-⑤-|
24
②口口口 |--①-|
③①口③ |②---|
④口口④ |③--④|
⑤口口⑤ |--⑤-|
25
口①②口 |①-②-|
口③④口 |③-④-|
口⑤⑥口 |⑤-⑥-|
口⑦⑧口 |⑦-⑧-|
26
①①②② |①-②-|
③③④④ |③-④-|
⑤⑤⑥⑥ |⑤-⑥-|
⑦⑦⑧⑧ |⑦-⑧-|
27
①②口② |①---|
③口③口 |②---|
口口口⑤ |③---|
④口口口 |④-⑤-|
28
①口①口 |----|
口②口② |①---|
口口口口 |②---|
口口口口 |----|
29
②⑥⑧④ |①-②-|
口口口口 |③-④-|
口口口口 |⑤-⑥-|
①⑤⑦③ |⑦-⑧-|
30
③口口④ |①-②-|
③⑤⑤④ |③-④-|
①⑤⑤② |⑤---|
①口口② |----|
31
②口②口 |①---|
口③口③ |②---|
⑤口口口 |③---|
口①口④ |④-⑤-|
32
口①口① |----|
②口②口 |①---|
口口口口 |②---|
口口口口 |----|
33
④⑧⑥② |①-②-|
口口口口 |③-④-|
口口口口 |⑤-⑥-|
③⑦⑤① |⑦-⑧-|
34
③口口③ |①-②-|
口④④口 |③---|
④②①④ |④---|
②口口① |----|
35
口②口② |①---|
③口③口 |②---|
口口口⑤ |③---|
④口①口 |④-⑤-|
36
①口①口 |----|
口②口② |①---|
口口口口 |②---|
口口口口 |----|
37
②④⑥⑧ |①-②-|
口口口口 |③-④-|
口口口口 |⑤-⑥-|
①③⑤⑦ |⑦-⑧-|
38
口⑤⑤口 |①-②-|
①②③④ |③-④-|
①②③④ |⑤---|
口⑤⑤口 |----|
39
口口⑤口 |①---|
口②口② |②---|
③口③口 |③---|
①④口口 |④-⑤-|
40
口口口口 |----|
①口①口 |①---|
口②口② |②---|
口口口口 |----|
41
①⑤口③ |①---|
口口口口 |②-③-|
①⑤口③ |--④-|
口②口④ |⑤---|
42
④口口④ |①-②-|
①②③口 |③---|
④口口④ |④---|
①②③口 |----|
43
口口⑥口 |①-②-|
口④口⑤ |--③-|
③口②口 |④---|
口口口① |⑤-⑥-|
44
②口口② |①---|
口口口口 |----|
口口口口 |②---|
口①①口 |----|
45
口口口口 |①---|
口①①③ |②-③-|
②①①口
口口口口

⑤④口口
④口⑤口
口⑤口④ |④---|
口口④⑤ |--⑤-|
46
口④④① |--①-|
④口口④ |②-③-|
口口③口 |④---|
口②口口 |----|
47
②④⑤① |①-②-|
④②①⑤ |③-④-|
⑧⑥⑦③ |⑤-⑥-|
⑥⑧③⑦ |⑦-⑧-|
48
④④口③ |--①-|
口②口口 |②-③-|
口口口口 |④---|
口口①口 |----|
49
口口口口 |①---|
①口③① |②-③-|
口②口口
①口口①

口④④口
⑤口口⑤
口口口口 |④---|
⑤④④⑤ |--⑤-|
50
④口③④ |--①-|
口④④口 |②-③-|
口②①口 |④---|
口口口口 |----|
51
口③④⑦ |①-②-|
①⑤⑦② |③-④-|
口③④⑥ |⑤---|
①⑤⑥② |⑥-⑦-|
52
口④④口 |--①-|
③口口口 |②-③-|
②口口口 |④---|
①口口口 |----|
53
①④⑤口 |①---|
⑤①③④ |②-③-|
④②①⑤ |④---|
口⑤④① |--⑤-|
54
①口口④ |--①-|
口④②口 |②-③-|
口③④口 |④---|
④口口口 |----|
55
⑤①②④ |①-②-|
①⑤④② |③-④-|
③⑦⑥⑧ |⑤-⑥-|
⑦③⑧⑥ |⑦-⑧-|
56
③口④④ |--①-|
口口②口 |②-③-|
口口口口 |④---|
口①口口 |----|
57
⑤口④⑤ |①---|
①④③① |②-③-|
⑤②④⑤ |④---|
①④口① |--⑤-|
58
口④④口 |--①-|
④口③④ |②-③-|
口②口口 |④---|
口口口① |----|
59
①口口② |①---|
⑤①②⑤ |②---|
①口口② |③-④-|
③③④④ |⑤---|
60
④①①④ |①---|
口③③口 |②---|
口②②口 |③---|
口口口口 |④---|
61
口①①口 |①---|
④口口口 |②---|
①口③① |③---|
口②口口 |④---|
62
口口①① |①---|
⑥⑤④③ |②---|
⑩⑨⑧⑦ |③④⑤⑥|
②②口口 |⑦⑧⑨⑩|
63
口②口口 |①---|
口口口口 |②---|
口④④口 |③---|
③口①口 |④---|
64
④口①⑤ |①--②|
②④口① |--③-|
口⑥⑤口 |④--⑤|
⑥②③③ |--⑥-|
65
⑥⑤⑥⑤ |①---|
②③④口 |--②③|
①口口① |④--⑤|
口口口口 |--⑥-|
66
口口口口 |①--②|
⑥⑥③③ |--③-|
⑤⑤②② |④--⑤|
④④①① |--⑥-|
67
口③①⑥ |①-②-|
口口口口 |③-④-|
口口②口 |⑤-⑥-|
⑦④⑤⑧ |⑦-⑧-|
68
口口口口 |①---|
②②②② |②---|
①①①①
口口口口

③③③③
口口口口
口口口⑥ |③-④-|
口④⑤口 |⑤-⑥-|
69
口口口口 |①---|
②口③口 |--②-|
口①①口 |----|
①口口① |--③-|
70
①②③④ |①②③④|
⑬⑭⑮⑯ |⑤⑥⑦⑧|
⑤⑪⑫⑥ |⑨⑩⑪⑫|
⑦⑧⑨⑩ |⑬⑭⑮⑯|
71
①①口口 |①---|
口③③口 |--②-|
口口口② |----|
口口②口 |--③-|
72
口口口口 |--①-|
①⑤⑤③ |②-③-|
口④④口 |④---|
口②口口 |⑤---|
73
口⑥①口 |①---|
口口口口 |②-③-|
⑥⑤③① |④---|
②口④口 |⑤-⑥-|
74
⑤口口④ |--①-|
口⑤①口 |②-③-|
口口④③ |④---|
口②口口 |⑤---|
75
口①①口 |①---|
①口口① |----|
口口口口 |----|
口口口口 |----|
76
②口口② |①---|
口口口口 |----|
口口口口 |②---|
口①①口 |----|
77
⑦⑩⑩⑧ |①②③④|
③口口④ |⑤⑥⑦⑧|
⑤口口⑥ |⑨---|
①⑨⑨② |⑩---|
78
口口口口 |①---|
口①①口 |②-③-|
口①①③
②口口口

④口口⑤
⑤口口④
④口⑤口 |④---|
口⑤口④ |--⑤-|
79
口④①口 |--①-|
口口③④ |②-③-|
④②口口 |④---|
口口④口 |----|
80
④⑧⑤① |①-②-|
②⑥③⑦ |③-④-|
⑧④①⑤ |⑤-⑥-|
⑥②⑦③ |⑦-⑧-|
81
④口口④ |--①-|
口口③口 |②-③-|
口②口口 |④---|
口口口① |----|
82
口①口③ |①---|
口口口① |②-③-|
①口口口
②口①口

⑤口口口
口④④⑤
⑤④④口 |④---|
口口口⑤ |--⑤-|
83
口④口② |--①-|
④③口口 |②-③-|
口口口④ |④---|
口①④口 |----|
84
①⑥②⑦ |①-②-|
⑦③⑥④ |③-④-|
①⑤②⑤ |⑤---|
⑤③⑤④ |⑥-⑦-|
85
①口①口 |--①-|
口②口② |②-③-|
③口③口 |④---|
口④口④ |----|
86
③②②口 |①---|
②口口② |②-③-|
口①口口
口口①口

口口口⑥
口口⑥口
口⑥④口 |④---|
⑥口口⑤ |⑤-⑥-|
87
口口④口 |--①-|
④③口口 |②-③-|
①口口④ |④---|
口④②口 |----|
88
①⑤⑧④ |①-②-|
⑦③⑥② |③-④-|
⑤①④⑧ |⑤-⑥-|
③⑦②⑥ |⑦-⑧-|
89
④口口④ |--①-|
口③口口 |②-③-|
口口②口 |④---|
①口口口 |----|
90
口口①口 |①---|
①口口③ |②-③-|
口②口①
口①口口

口④口⑤
⑤口④口
④口⑤口 |④---|
口⑤口④ |--⑤-|
91
口④④口 |--①-|
口③口口 |②-③-|
④口口④ |④---|
①口②口 |----|
92
①⑦⑧② |①-②-|
⑦③④⑧ |③-④-|
⑤①②⑥ |⑤-⑥-|
③⑤⑥④ |⑦-⑧-|
93
①④口④ |①---|
④③②口 |②---|
③①①口 |③---|
②口③② |④---|
94
①⑧⑦⑥ |①-②-|
口口口④ |③-④-|
⑤口⑨② |⑤-⑥⑦|
口③口口 |⑧-⑨-|
95
④口口③ |①---|
①④③② |②---|
⑥口口⑤ |③-④-|
①⑥⑤② |⑤-⑥-|
96
口口口口 |--①-|
⑥口⑤① |②-③-|
口②口口 |④-⑤-|
④⑥口③ |--⑥-|
97
口⑧⑦⑥ |--①②|
口⑤⑤口 |③-④-|
①②③口 |⑤-⑥⑦|
口口口④ |⑧---|
98
①⑧⑦⑥ |①-②-|
①口口④ |③-④-|
⑤口⑨② |⑤-⑥⑦|
口③口口 |⑧-⑨-|
99
④口口③ |①---|
①④③② |②---|
⑥口口⑤ |③-④-|
①⑥⑤② |⑤-⑥-|
100
口①①口 |①---|
口③③口 |--②-|
口②②口 |③---|
④口口④ |--④-|
101
①②③口 |--①②|
④口口④ |③-④-|
口口口口 |⑤---|
口⑤⑤口 |----|
102
口⑨口① |①-②③|
⑦口⑥口 |④-⑤-|
口②③④ |⑥-⑦-|
⑤口口⑧ |⑧-⑨-|
103
④口①④ |--①-|
口④④口 |②③-④|
口口③① |----|
口②口口 |----|

accuracy: 99.5%
最終更新:2024年09月08日 17:31