アットウィキロゴ
マツヨイナイトバグ
ビートまりおとまろん

EXTREME

Level: 10.4
BPM: 190
Notes: 1064

1
口口口口 |----|
口口口口 |----|
口口口口 |----|
口口口口 |----|
2
①②③口 |①---|
⑥口口⑥ |②---|
口④⑤口 |③-④⑤|
口口口口 |⑥---|
3
⑥②④⑨ |①-②-|
口⑦①口 |③-④-|
②口⑧④ |⑤-⑥⑦|
口③⑤口 |⑧-⑨-|
4
⑥②④⑧ |①-②-|
①⑥⑧③ |③-④-|
⑤口口⑦ |⑤-⑥-|
①⑤⑦③ |⑦-⑧-|
5
⑤①③⑥ |--①-|
①口口③ |②-③-|
⑤②④口 |④-⑤-|
口口口口 |--⑥-|
6
⑥①④口 |--①②|
⑦口②口 |③-④-|
⑧⑤口③ |⑤-⑥⑦|
口口口口 |⑧---|
7
⑨④⑥② |①-②-|
口⑦口② |③-④-|
⑧④口口 |⑤-⑥⑦|
⑤①口③ |⑧-⑨-|
8
口④口② |①-②-|
口口①③ |③-④-|
口口口口
口口①③

口口口口
⑦口口口
口口口⑥ |⑤-⑥-|
⑤⑧⑧口 |⑦-⑧-|
9
口③③口 |①---|
口口口口 |--②-|
④①①④ |③---|
②口口② |--④-|
10
⑥口口⑥ |--①②|
③⑤⑤③ |③-④-|
⑥②②⑥ |⑤---|
④①①④ |⑥---|
11
口口①口 |----|
口口④口 |①---|
口口口口 |②---|
③②口口 |③-④-|
12
口口口① |----|
口口口口 |①---|
口口口口 |②---|
口口②口 |----|
13
口口口口 |----|
③口口⑤ |①-②-|
口②口口 |③---|
①口口④ |④-⑤-|
14
口口口口 |----|
口口口口 |①---|
口口口口 |----|
口①口口 |----|
15
口口②① |----|
口口④口 |①---|
口口口口 |②---|
口③口口 |③-④-|
16
口口口口 |--①-|
①口口④ |②---|
口口口口 |③---|
③口②口 |④---|
17
①口口口 |①---|
口②口口 |②---|
③口口口 |③---|
口口⑤④ |④-⑤-|
18
①⑤④① |--①-|
⑤⑦⑥④ |--②③|
②③口口 |④-⑤-|
⑦口口⑥ |⑥-⑦-|
19
②口口⑤ |①---|
口口口口 |②---|
③口④口 |③---|
口口①口 |④-⑤-|
20
口口口口 |----|
口①口口 |①---|
口口口口 |②---|
③口②③ |③---|
21
口口口⑥ |①---|
①④口① |②-③-|
口口③⑤ |④---|
口②口口 |⑤-⑥-|
22
口①①口 |--①-|
⑥口口④ |--②③|
②③口口 |④-⑤-|
⑦口口⑤ |⑥-⑦-|
23
口口③② |①---|
口①①⑤ |②---|
口口口口 |③---|
口④口口 |④-⑤-|
24
口口口口 |①-②-|
②口口口 |③---|
口①①③
口口口口

口④口口
口⑤口口
口⑥口口 |④--⑤|
口口口口 |--⑥-|
25
口⑥口① |①-②-|
②⑧⑦口 |③-④-|
口口③口 |⑤-⑥-|
口④口⑤ |⑦-⑧-|
26
①⑤②⑥ |①-②-|
③⑦⑧④ |③-④-|
①⑤⑥② |⑤-⑥-|
③⑦④⑧ |⑦-⑧-|
27
①⑦⑩⑥ |①---|
③⑪口② |②③④⑤|
⑤⑨⑧⑫ |⑥⑦⑧⑨|
⑬口④口 |⑩⑪⑫⑬|
28
②⑩⑬⑨ |①②③④|
⑥口①⑤ |⑤⑥⑦⑧|
⑧⑫⑪⑬ |⑨⑩⑪⑫|
口④⑦③ |⑬---|
29
②⑥⑧④ |①-②-|
⑥②④⑧ |③-④-|
口口口口 |⑤-⑥-|
①⑤⑦③ |⑦-⑧-|
30
③⑨口④ |①-②-|
⑩③④口 |③-④-|
①①②② |⑤⑥⑦⑧|
⑤⑥⑦⑧ |⑨-⑩-|
31
②口③口 |①---|
⑩⑥⑪⑦ |②③④⑤|
⑧①⑤⑨ |⑥⑦⑧⑨|
④⑫口⑬ |⑩⑪⑫⑬|
32
⑤①⑥② |①②③④|
⑬⑨口⑩ |⑤⑥⑦⑧|
⑪③⑧⑫ |⑨⑩⑪⑫|
⑦⑬④口 |⑬---|
33
④②④② |①-②-|
⑧⑥⑧⑥ |③-④-|
口口口口 |⑤-⑥-|
③⑦⑤① |⑦-⑧-|
34
③④④③ |①-②-|
口口口口 |③---|
②③③① |④---|
②口口① |----|
35
⑪⑦⑩② |①---|
①③⑥① |②③④⑤|
⑨⑬④⑫ |⑥⑦⑧⑨|
口⑤⑧口 |⑩⑪⑫⑬|
36
口⑩⑬⑤ |①②③④|
②⑥⑨① |⑤⑥⑦⑧|
⑫口⑦⑬ |⑨⑩⑪⑫|
④⑧⑪③ |⑬---|
37
②⑥⑧④ |①-②-|
①口口③ |③-④-|
口⑤⑦口 |⑤-⑥-|
②⑥⑧④ |⑦-⑧-|
38
②口口④ |①-②-|
⑤⑤⑤⑤ |③-④-|
口⑤口⑤ |⑤---|
①口口③ |----|
39
②⑩③⑪ |①---|
⑥口⑦口 |②③④⑤|
⑫⑧⑤⑬ |⑥⑦⑧⑨|
④①①⑨ |⑩⑪⑫⑬|
40
⑤⑬⑥口 |①②③④|
⑨①⑩② |⑤⑥⑦⑧|
⑬⑪⑧口 |⑨⑩⑪⑫|
⑦③④⑫ |⑬---|
41
⑤口口① |①---|
③①⑤② |②-③-|
⑤口③① |--④-|
③口口④ |⑤---|
42
口③③② |①-②-|
④②口④ |③---|
口④④① |④---|
④①口④ |----|
43
口口口口 |----|
口口口口 |----|
口口口口 |----|
口口口口 |----|
44
口口口口 |①---|
口口②口 |----|
口口口口 |②---|
口①口口 |----|
45
③①④⑧ |①-②-|
①⑦⑥④ |③-④-|
⑤③⑧② |⑤-⑥-|
口⑤口口 |⑦-⑧-|
46
⑤口④口 |①-②-|
③⑧⑦⑥ |③-④-|
⑤③口④ |⑤-⑥⑦|
①口②② |⑧---|
47
口①④① |①-②-|
④⑦口口 |③-④-|
⑤口②⑧ |⑤-⑥-|
口③⑥口 |⑦-⑧-|
48
③⑮⑯④ |①②③④|
⑦⑪⑫⑧ |⑤⑥⑦⑧|
⑬①②⑭ |⑨⑩⑪⑫|
⑤⑨⑩⑥ |⑬⑭⑮⑯|
49
①口⑧② |①-②-|
③⑤⑥④ |③-④-|
⑦①④⑧ |⑤-⑥-|
③⑤口口 |⑦-⑧-|
50
①口口④ |①-②-|
⑤⑧⑦⑥ |③-④-|
口③④口 |⑤-⑥⑦|
③⑤②② |⑧---|
51
口①②⑦ |①-②-|
⑤口⑦⑥ |③-④-|
①③④② |⑤---|
③⑤⑥④ |⑥-⑦-|
52
①口②口 |--①-|
③口口口 |②-③-|
①口④② |④---|
口③口④ |----|
53
口⑧⑤① |①-②-|
④⑥①③ |③-④-|
⑧④⑦⑤ |⑤-⑥-|
②口③口 |⑦-⑧-|
54
④口⑤⑤ |①-②-|
⑥⑦⑧③ |③-④-|
口④口口 |⑤-⑥⑦|
②②③① |⑧---|
55
④④口⑦ |①-②-|
口口口⑤ |③-④-|
⑧口③① |⑤-⑥-|
⑥②口① |⑦-⑧-|
56
③⑦③⑥ |--①-|
③③③⑩ |②-③-|
⑪③⑧② |④⑤⑥⑦|
⑤⑨①④ |⑧⑨⑩⑪|
57
③⑤②⑥ |①---|
③⑦④口 |②-③-|
口口口② |④-⑤-|
⑦口①④ |⑥-⑦-|
58
⑥⑦⑧口 |①-②-|
④口⑤⑤ |③-④-|
②②①③ |⑤-⑥⑦|
口④③口 |⑧---|
59
口口⑤⑤ |①---|
②①③口 |②---|
④②①③ |③-④-|
口④②① |⑤---|
60
口⑩⑨口 |①---|
口⑧⑦① |②---|
口⑥⑤口 |③④⑤⑥|
②④③口 |⑦⑧⑨⑩|
61
口口口⑤ |①-②-|
②口口① |③-④-|
⑥⑦⑧⑨ |⑤-⑥⑦|
④⑩口③ |⑧⑨⑩-|
62
②⑥①口 |①-②③|
④口③① |④⑤⑥⑦|
口口口口
口口⑤⑦

口口⑮⑨
口⑫口口
⑩口⑪⑬ |⑧⑨⑩⑪|
⑧⑭口口 |⑫⑬⑭⑮|
63
②⑥口口 |①-②③|
④⑨③⑫ |④⑤⑥-|
⑪①⑧⑭ |⑦⑧⑨⑩|
⑦⑬⑤⑩ |⑪⑫⑬⑭|
64
①口④② |①--②|
③⑤②口 |--③-|
⑤①④⑥ |④--⑤|
③口口⑥ |--⑥-|
65
②③④口 |①---|
口口口⑤ |--②③|
口口口口 |④--⑤|
⑥①①口 |--⑥-|
66
③口口⑥ |①--②|
②③⑥⑤ |--③-|
①②⑤④ |④--⑤|
口①④口 |--⑥-|
67
口①②口 |①-②-|
口⑦口口 |③-④-|
口③口⑥ |⑤-⑥-|
⑤口⑧④ |⑦-⑧-|
68
口口口④ |----|
口③口口 |----|
口口②口 |--①②|
口①口口 |③-④-|
69
①①口口 |①---|
口③④口 |--②-|
口⑤⑥口 |----|
口口②② |③④⑤⑥|
70
⑨③⑩④ |①②③④|
⑤⑮⑯⑧ |⑤⑥⑦⑧|
⑪⑬⑭② |⑨⑩⑪⑫|
①⑦⑥⑫ |⑬⑭⑮⑯|
71
口①口口 |①-②-|
②口口口 |③④⑤-|
口口口口
⑤④③口

口⑩⑩口
口口口⑥
⑦⑧⑨口 |⑥-⑦⑧|
口口口口 |⑨-⑩-|
72
口口口③ |--①-|
①⑤⑥⑦ |②-③-|
口口口⑦ |④-⑤⑥|
口②④口 |⑦---|
73
①①②⑧ |①-②-|
口⑦口口 |③-④-|
口③⑥口 |⑤-⑥-|
口⑤口④ |⑦-⑧-|
74
①①口口 |①-②-|
⑦口②⑧ |③-④-|
口③口⑥ |⑤-⑥-|
⑤口口④ |⑦-⑧-|
75
⑮⑦⑧⑯ |①②③④|
⑬⑤⑥⑭ |⑤⑥⑦⑧|
⑪③④⑫ |⑨⑩⑪⑫|
⑨①②⑩ |⑬⑭⑮⑯|
76
口口口口 |①---|
口口②口 |----|
口口口口 |②---|
口①口口 |----|
77
口⑦⑧口 |①②③④|
口③⑩④ |⑤⑥⑦⑧|
⑤口口⑥ |⑨---|
①⑨②口 |⑩---|
78
①口口① |①-②-|
④口口④ |③-④-|
口②口口
③口③口

⑧口⑥⑧
口⑦口口
口口口口 |⑤-⑥-|
口⑤口⑤ |⑦-⑧-|
79
口⑥⑦⑧ |①-②-|
⑤口②⑤ |③-④-|
②④①④ |⑤-⑥⑦|
③口③口 |⑧---|
80
口口口口 |①-②-|
④①①④ |③-④-|
②口口口
口口③口

口口口口
口⑧⑧口
口口⑤口 |⑤-⑥-|
⑥口口⑦ |⑦-⑧-|
81
③⑪⑫④ |①②③④|
⑦⑮⑯⑧ |⑤⑥⑦⑧|
①⑨⑩② |⑨⑩⑪⑫|
⑬⑤⑥⑭ |⑬⑭⑮⑯|
82
①⑦⑥④ |①-②-|
④口⑧⑤ |③-④-|
①⑤口② |⑤-⑥-|
口③③口 |⑦-⑧-|
83
口口④③ |--①-|
⑤⑥⑦④ |②-③-|
④口口④ |④-⑤⑥|
②④④① |⑦---|
84
①①口④ |①-②-|
口口口口 |③-④-|
口③②④
③口口②

口⑦⑦口
⑤口口⑥
⑥口口口 |⑤---|
口⑤口口 |⑥-⑦-|
85
①口口② |--①-|
口③②口 |②-③-|
口①④口 |④---|
③口口④ |----|
86
②⑥②口 |----|
①④⑥① |①-②-|
口口口③ |③-④-|
③①①⑤ |⑤-⑥-|
87
⑤口④⑤ |①-②-|
⑥⑦⑧② |③-④-|
②④①口 |⑤-⑥⑦|
口③③口 |⑧---|
88
④①④口 |①-②-|
口口口① |③-④-|
②口口口
口口口③

口口口⑤
口口口⑧
口口口口 |⑤-⑥-|
⑥⑦口口 |⑦-⑧-|
89
③⑦③⑥ |--①-|
③③③⑩ |②-③-|
⑪③⑧② |④⑤⑥⑦|
⑤⑨①④ |⑧⑨⑩⑪|
90
④⑧④⑧ |①-②-|
⑤③③⑦ |③-④-|
口⑥口② |⑤-⑥-|
口口①⑤ |⑦-⑧-|
91
④口⑤口 |①-②-|
⑤⑧⑦⑥ |③-④-|
②口②④ |⑤-⑥⑦|
①③③口 |⑧---|
92
口①口② |①-②-|
口口口口 |③-④-|
口③口口
口口④①

口口⑤口
口⑦⑥口
口口口口 |⑤-⑥-|
口⑤口⑧ |⑦-⑧-|
93
①②③④ |①---|
①口③④ |②---|
①口②③ |③---|
①口口④ |④---|
94
⑤口③⑧ |①---|
口⑥④口 |②-③-|
①①⑦③ |④-⑤⑥|
①②①口 |⑦-⑧-|
95
⑥②④⑧ |①-②-|
①⑥⑧③ |③-④-|
⑤口口⑦ |⑤-⑥-|
①⑤⑦③ |⑦-⑧-|
96
⑤①③⑥ |--①-|
①口口③ |②-③-|
⑤②④口 |④-⑤-|
口口口口 |--⑥-|
97
⑥①④口 |--①②|
⑦口②口 |③-④-|
⑧⑤口③ |⑤-⑥⑦|
口口口口 |⑧---|
98
⑨④⑥② |①-②-|
口⑦口② |③-④-|
⑧④口口 |⑤-⑥⑦|
⑤①口③ |⑧-⑨-|
99
口④口② |①-②-|
口口①③ |③-④-|
口口口口
口口①③

口口口口
⑦口口口
口口口⑥ |⑤-⑥-|
⑤⑧⑧口 |⑦-⑧-|
100
口③③口 |①---|
口口口口 |--②-|
④①①④ |③---|
②口口② |--④-|
101
⑥口口⑥ |--①②|
③④④③ |③-④-|
⑥②②⑥ |⑤---|
⑤①①⑤ |⑥---|
102
⑨①⑥口 |①-②③|
⑤口④⑧ |④-⑤-|
口③口口 |⑥-⑦-|
⑦口②口 |⑧-⑨-|
103
口④④③ |--①-|
④④①口 |②③-④|
④口①① |----|
口②①① |----|

accuracy: 99.5%
最終更新:2024年09月08日 17:31