アットウィキロゴ
みくみくにしてあげる♪【してやんよ】
ika

ADVANCED

Level: 5
BPM: 160
Notes: 340

1
口口口口 |----|
口口口口 |----|
口口口口 |----|
口口口口 |----|
2
口口口口 |----|
口口口口 |----|
口口口口 |----|
口口口口 |----|
3
①口口② |①---|
③口口④ |②---|
口口口口 |③---|
口口口口 |④---|
4
口口口口 |①---|
口口口口 |②---|
①口口② |③---|
③口口④ |④---|
5
口口口口 |①---|
口口口口 |----|
口①①口
口口口口

口口口口
口口口口
口③口口 |----|
②口口口 |②-③-|
6
口口③口 |①-②-|
口口①口 |--③-|
口④口② |--④-|
口口口口 |----|
7
②口口① |①---|
④口口③ |②---|
口口口口 |③---|
口口口口 |④---|
8
口口口口 |①---|
口口口口 |②---|
②口口① |③---|
④口口③ |④---|
9
口口口口 |①---|
口口口口 |----|
口①①口
口口口口

口口口口
口口口口
口口③口 |----|
口口口② |②-③-|
10
口③口口 |①-②-|
口①口口 |--③-|
②⑤④口 |--④-|
口口口口 |⑤---|
11
口③②① |--①-|
④⑤口口 |②-③-|
口口口⑥ |④-⑤-|
口口口口 |--⑥-|
12
口③口⑦ |①-②-|
口④②⑥ |③-④-|
口口①⑤ |--⑤-|
口口口口 |⑥-⑦-|
13
①②③口 |--①-|
⑤口口⑤ |②-③-|
口口口④ |--④-|
口口口口 |--⑤-|
14
口①①口 |--①-|
口②②口 |--②-|
口③③口 |--③-|
口口口口 |----|
15
①②③口 |--①-|
口口口口 |②-③-|
口口口口 |--④-|
口⑥⑤④ |⑤-⑥-|
16
⑦口③口 |①-②-|
⑥②④口 |③-④-|
⑤①口口 |--⑤-|
口口口口 |⑥-⑦-|
17
口口口口 |--①-|
口①①口 |--②-|
口②②口
口口口口

口口口口
④④④④
口口口口 |--③-|
口③③口 |--④-|
18
口口口口 |----|
口①口口 |----|
口③②口 |--①-|
口口口口 |②-③-|
19
口口③口 |①---|
口②口口 |--②-|
口口口口 |③---|
口口①口 |----|
20
口口①口 |----|
口②③口 |--①-|
口④⑤口 |②-③-|
口口口口 |④-⑤-|
21
口③口口 |①---|
口口②口 |--②-|
口口口口 |③---|
口①口口 |----|
22
口口口口 |----|
口⑤④口 |--①-|
口③②口 |②-③-|
口①口口 |④-⑤-|
23
口②①口 |①-②-|
口口⑤口 |--③-|
④口口③ |--④-|
口口口口 |--⑤-|
24
口①口口 |①---|
口③口口 |②-③-|
⑤口②④ |--④-|
口口口口 |--⑤-|
25
口③口口 |①---|
口口②口 |--②-|
口口口口 |③---|
口①口口 |----|
26
口①②口 |----|
口③④口 |--①-|
口⑤口口 |②-③-|
口口口口 |④-⑤-|
27
③口⑥⑤ |①---|
②口口④ |②-③-|
口口口口 |--④-|
①口口① |⑤-⑥-|
28
口口口口 |--①-|
口口口口 |②-③-|
④①②④ |④---|
口③口口 |----|
29
口口③② |①---|
④⑤⑥口 |②-③-|
口①口口 |--④-|
口口口口 |⑤-⑥-|
30
③口②① |①-②-|
口⑤④口 |--③-|
口口⑥口 |--④-|
口口口口 |⑤-⑥-|
31
③口⑥⑤ |①---|
②口口④ |②-③-|
口口口口 |--④-|
①口口① |⑤-⑥-|
32
口⑥⑦口 |--①-|
⑤口口口 |②-③-|
④①②④ |④-⑤-|
口③口口 |⑥-⑦-|
33
③口口③ |①-②-|
口④⑤① |--③-|
口口②口 |----|
口口口口 |④-⑤-|
34
口口口口 |①-②-|
③口口③ |--③-|
口①②口
口口口口

口口口口
口口口口
口⑤⑥口 |--④-|
④口口口 |⑤-⑥-|
35
口口口口 |①---|
②口口③ |----|
口口口口 |②---|
口口口① |③---|
36
口口口口 |①---|
口口口口 |②---|
①口口② |③---|
③口口④ |④---|
37
口口口口 |①---|
口口口口 |----|
口①①口
口口口口

口口口口
口口口口
口③口口 |----|
②口口口 |②-③-|
38
口③③口 |①-②-|
口④①口 |--③-|
口⑥⑤② |--④-|
口口口口 |⑤-⑥-|
39
口口口口 |①---|
③口①② |----|
口口口口 |②---|
口口口口 |③---|
40
口口口口 |①---|
口口口口 |②---|
②口口① |③---|
④口口③ |④---|
41
口口口口 |①---|
口口口口 |----|
口①①口
口口口口

口口口口
口口口口
口口③口 |----|
口口口② |②-③-|
42
口③口口 |①-②-|
口①口口 |--③-|
②⑤④口 |--④-|
口口口口 |⑤---|
43
③口⑥⑤ |①---|
②口口④ |②-③-|
口口口口 |--④-|
①口口① |⑤-⑥-|
44
口口口口 |--①-|
口口口口 |②-③-|
④①②④ |④---|
口③口口 |----|
45
口口③② |①---|
④⑤⑥口 |②-③-|
口①口口 |--④-|
口口口口 |⑤-⑥-|
46
③口②① |①-②-|
口⑤④口 |--③-|
口口⑥口 |--④-|
口口口口 |⑤-⑥-|
47
③口⑥⑤ |①---|
②口口④ |②-③-|
口口口口 |--④-|
①口口① |⑤-⑥-|
48
口⑥⑦口 |--①-|
⑤口口口 |②-③-|
④①②④ |④-⑤-|
口③口口 |⑥-⑦-|
49
③口口③ |①-②-|
口④⑤① |--③-|
口口②口 |----|
口口口口 |④-⑤-|
50
口口口口 |①-②-|
③口口③ |--③-|
口①②口
口口口口

口④口口
口口⑤口
口⑥口口 |--④-|
口口口口 |⑤-⑥-|
51
③口⑥⑤ |①---|
②口口④ |②-③-|
口口口口 |--④-|
①口口① |⑤-⑥-|
52
口口口口 |--①-|
口口口口 |②-③-|
④①②④ |④---|
口③口口 |----|
53
口口③② |①---|
④⑤⑥口 |②-③-|
口①口口 |--④-|
口口口口 |⑤-⑥-|
54
③口②① |①-②-|
口⑤④口 |--③-|
口口⑥口 |--④-|
口口口口 |⑤-⑥-|
55
③口⑥⑤ |①---|
②口口④ |②-③-|
口口口口 |--④-|
①口口① |⑤-⑥-|
56
口⑥⑦口 |--①-|
⑤口口口 |②-③-|
④①②④ |④-⑤-|
口③口口 |⑥-⑦-|
57
③口口③ |①-②-|
口④⑤① |--③-|
口口②口 |----|
口口口口 |④-⑤-|
58
口口口口 |①-②-|
③口口口 |--③-|
口①②口
口口口口

口④⑤口
口口口⑥
口口⑦口 |④-⑤-|
口口口口 |⑥-⑦-|
59
口口口口 |①---|
②口口③ |----|
口①口口 |②---|
口口口口 |③---|
60
口口口口 |①---|
口口口口 |②---|
①口口② |③---|
③口口④ |④---|
61
口口口口 |①---|
口口口口 |----|
口①①口
口口口口

口口口口
口口口口
口③口口 |----|
②口口口 |②-③-|
62
口口③口 |①-②-|
口口①口 |--③-|
口④口② |--④-|
口口口口 |----|
63
②口口① |①---|
④口口③ |②---|
口口口口 |③---|
口口口口 |④---|
64
口口口口 |①---|
口口口口 |②---|
②口口① |③---|
④口口③ |④---|
65
口口口口 |①---|
口口口口 |----|
口①①口
口口口口

口口口口
口口口口
口口③口 |----|
口口口② |②-③-|
66
口③口口 |①-②-|
口①口口 |--③-|
②⑤④口 |--④-|
口口口口 |⑤---|

accuracy: 100%
最終更新:2023年01月17日 10:43