アットウィキロゴ
みくみくにしてあげる♪【してやんよ】
ika

EXTREME

Level: 9.2
BPM: 160
Notes: 594

1
口口口口 |----|
口口口口 |----|
口口口口 |----|
口口口口 |----|
2
口⑦⑨口 |①-②-|
⑥口②④ |③-④⑤|
⑧口⑤口 |-⑥⑦-|
①③口口 |⑧-⑨-|
3
②口口② |①---|
③口口③ |②-③-|
⑤口口④ |--④-|
①④⑤① |--⑤-|
4
③①④② |①-②-|
③④①② |--③-|
口⑤⑥口 |④---|
口口口口 |⑤-⑥-|
5
②口口② |①---|
③口口③ |②-③-|
④⑤⑤⑥ |--④-|
①⑥④① |⑤-⑥-|
6
口①①口 |①-②-|
口②②口 |--③-|
口④⑥口 |④-⑤-|
③⑦⑤③ |⑥-⑦-|
7
②口口② |①---|
③①①③ |②-③-|
⑤口口④ |--④-|
口④⑤口 |--⑤-|
8
②③③① |--①-|
口①②口 |--②-|
口④⑤口 |③---|
口口口口 |④-⑤-|
9
②口口② |①---|
③口⑥③ |②-③-|
口⑤口口 |--④-|
①④④① |⑤-⑥-|
10
口①口口 |①-②-|
②口口口 |--③-|
口⑤口③ |④-⑤-|
⑥口④口 |⑥---|
11
⑦①①口 |①-②-|
口②口口 |③-④-|
口⑥③口 |⑤-⑥-|
口④⑤口 |--⑦-|
12
口①口口 |①-②-|
口口③② |③-④-|
口④④口
口口口口

口⑦⑦口
⑤⑥口口
口口口口 |--⑤-|
口口口口 |⑥-⑦-|
13
⑤口口口 |--①-|
口口⑤④ |②-③-|
③口①口 |--④-|
口②口口 |--⑤-|
14
口口口① |--①-|
口①口口 |--②-|
②口口③ |--③-|
口③②口 |----|
15
口①①口 |①-②-|
口⑤②口 |③-④-|
口③⑥口 |--⑤-|
口⑦④口 |⑥-⑦-|
16
口⑦⑦口 |①-②-|
口口⑥⑤ |③-④-|
①口口③ |--⑤-|
②口口④ |⑥-⑦-|
17
⑤口口⑤ |--①-|
⑤③③⑤ |--②-|
①④④② |--③-|
口①②口 |④-⑤-|
18
口口口口 |----|
①口③口 |----|
口②口口 |--①-|
口口口口 |②-③-|
19
②③②③ |①---|
口口口口 |--②-|
口口口① |③---|
口口口口 |----|
20
口口口口 |----|
口③口① |--①-|
④口②口 |②-③-|
口⑤口口 |④-⑤-|
21
③②③② |①---|
口口口口 |--②-|
口口口口 |③---|
口口①口 |----|
22
口口口口 |----|
①口③口 |--①-|
口②口④ |②-③-|
口口⑤口 |④-⑤-|
23
③口口③ |①-②-|
⑤口口② |--③-|
①⑤②口 |--④-|
④①口④ |--⑤-|
24
⑤口①④ |①---|
口④⑤① |②-③-|
②口口② |--④-|
口③③口 |--⑤-|
25
口①①③ |①---|
口②口③ |--②-|
③口②口 |③---|
③口口口 |----|
26
口口口口 |----|
口口口⑤ |--①-|
口③④口 |②-③-|
口①②口 |④-⑤-|
27
①①①② |①---|
③③③④ |②-③-|
⑤⑤⑤口 |--④-|
口口口⑥ |⑤-⑥-|
28
①②④④ |--①-|
③④口④ |②-③-|
口口口④ |④---|
口口④口 |----|
29
①⑥⑤口 |①---|
口③③④ |②-③-|
④②②口 |--④-|
口⑤⑥① |⑤-⑥-|
30
口口口③ |①-②-|
①②口口 |--③-|
口口②①
③口口口

口口口口
口口口口
口⑤⑥口 |--④-|
口口④口 |⑤-⑥-|
31
①①①② |①---|
③③③④ |②-③-|
⑤⑤⑤口 |--④-|
口口口⑥ |⑤-⑥-|
32
①②④④ |--①-|
③④口④ |②-③-|
⑥⑦口④ |④-⑤-|
⑤口④口 |⑥-⑦-|
33
③③③③ |①-②-|
口口①口 |--③-|
口口②口
口口口口

口口口口
口口⑤④
口口口口 |----|
口口口口 |④-⑤-|
34
③口口③ |①-②-|
口口口口 |--③-|
①②口口
口口口口

口口口口
口口⑤口
口⑥口④ |--④-|
口口口口 |⑤-⑥-|
35
②口口② |①---|
③口口③ |②-③-|
⑤口口④ |--④-|
①④⑤① |--⑤-|
36
③①④② |①-②-|
③④①② |--③-|
口⑤⑥口 |④---|
口口口口 |⑤-⑥-|
37
②口口② |①---|
③口口③ |②-③-|
④⑤⑤⑥ |--④-|
①⑥④① |⑤-⑥-|
38
口①①口 |①-②-|
③②②③ |③-④-|
口⑤⑦口 |⑤-⑥-|
④⑧⑥④ |⑦-⑧-|
39
②口口② |①---|
③①①③ |②-③-|
⑤口口④ |--④-|
口④⑤口 |--⑤-|
40
②③③① |--①-|
口①②口 |--②-|
口④⑤口 |③---|
口口口口 |④-⑤-|
41
②口口② |①---|
③口⑥③ |②-③-|
口⑤口口 |--④-|
①④④① |⑤-⑥-|
42
口①口口 |①-②-|
②口口口 |--③-|
口⑤⑥③ |④-⑤-|
口口④口 |⑥---|
43
①①①② |①---|
③③③④ |②-③-|
⑤⑤⑤口 |--④-|
口口口⑥ |⑤-⑥-|
44
①②④④ |--①-|
③④口④ |②-③-|
口口口④ |④---|
口口④口 |----|
45
①⑥⑤口 |①---|
口③③④ |②-③-|
④②②口 |--④-|
口⑤⑥① |⑤-⑥-|
46
口口口③ |①-②-|
①②口口 |--③-|
口口②①
③口口口

口口口口
口口口口
口⑤⑥口 |--④-|
口口④口 |⑤-⑥-|
47
①①①② |①---|
③③③④ |②-③-|
⑤⑤⑤口 |--④-|
口口口⑥ |⑤-⑥-|
48
①②④④ |--①-|
③④口④ |②-③-|
⑥⑦口④ |④-⑤-|
⑤口④口 |⑥-⑦-|
49
③③③③ |①-②-|
口口①口 |--③-|
口口②口
口口口口

口口口口
口口⑤④
口口口口 |----|
口口口口 |④-⑤-|
50
口口口③ |①-②-|
口口口口 |--③-|
①②口口
③口口口

口口口口
口④口口
口⑥⑤口 |--④-|
口口口口 |⑤-⑥-|
51
①①①② |①---|
③③③④ |②-③-|
⑤⑤⑤口 |--④-|
口口口⑥ |⑤-⑥-|
52
①②④④ |--①-|
③④口④ |②-③-|
口口口④ |④---|
口口④口 |----|
53
①⑥⑤口 |①---|
口③③④ |②-③-|
④②②口 |--④-|
口⑤⑥① |⑤-⑥-|
54
口口口③ |①-②-|
①②口口 |--③-|
口口②①
③口口口

口口口口
口口口口
口⑤⑥口 |--④-|
口口④口 |⑤-⑥-|
55
①①①② |①---|
③③③④ |②-③-|
⑤⑤⑤口 |--④-|
口口口⑥ |⑤-⑥-|
56
①②④④ |--①-|
③④口④ |②-③-|
⑥⑦口④ |④-⑤-|
⑤口④口 |⑥-⑦-|
57
③③③③ |①-②-|
口口①口 |--③-|
口口②口
口口口口

口口口口
口口⑤④
口口口口 |----|
口口口口 |④-⑤-|
58
口③口口 |①-②-|
口口口口 |--③-|
①②口口
口口口口

口口④口
口⑤⑥口
口⑦口口 |④-⑤-|
口口口口 |⑥-⑦-|
59
②口口② |①---|
③口口③ |②-③-|
⑤口①④ |--④-|
口④⑤口 |--⑤-|
60
③①④② |①-②-|
③④①② |--③-|
口⑤⑥口 |④---|
口口口口 |⑤-⑥-|
61
②口口② |①---|
③口口③ |②-③-|
④⑤⑤⑥ |--④-|
①⑥④① |⑤-⑥-|
62
口①①口 |①-②-|
口②②口 |--③-|
口④⑥口 |④-⑤-|
③⑦⑤③ |⑥-⑦-|
63
②口口② |①---|
③①①③ |②-③-|
⑤口口④ |--④-|
口④⑤口 |--⑤-|
64
②③③① |--①-|
口①②口 |--②-|
口④⑤口 |③---|
口口口口 |④-⑤-|
65
②口口② |①---|
③口⑥③ |②-③-|
口⑤口口 |--④-|
①④④① |⑤-⑥-|
66
口①口口 |①-②-|
②口口口 |--③-|
口⑤口③ |④-⑤-|
⑥口④口 |⑥---|

accuracy: 100%
最終更新:2023年01月17日 10:43