アットウィキロゴ
YONA YONA DANCE
和田アキ子

BASIC

Level: 4
BPM: 145
Notes: 220

1
口口口口 |----|
口口口口 |----|
口口口口 |----|
口口口口 |----|
2
口口口口 |①---|
口①①口 |--②-|
口②②口 |----|
口③③口 |③---|
3
口口口口 |①---|
口口口口 |----|
②口口口 |②---|
口口口① |----|
4
②口口口 |①---|
口口口① |----|
口口口口 |②---|
口口口口 |----|
5
口口口① |①---|
②口口口 |----|
口口口口 |②---|
口口口口 |----|
6
口口口口 |①---|
口口口口 |----|
口口口① |②---|
②口口口 |----|
7
口口口口 |①---|
口①①口 |--②-|
口②②口 |----|
口③③口 |③---|
8
口口口口 |①---|
口口口口 |----|
②口口口 |②---|
口口口① |----|
9
②口口口 |①---|
口口口① |----|
口口口口 |②---|
口口口口 |----|
10
口①①口 |①---|
口口口口 |----|
②口口② |②---|
口③③口 |③---|
11
口口口④ |①---|
口口口③ |②---|
口口口② |③---|
口口口① |④---|
12
口口口口 |----|
口口口口 |----|
口口口口 |----|
口口口口 |----|
13
④口口口 |①---|
③口口口 |②---|
②口口口 |③---|
①口口口 |④---|
14
口口口口 |----|
口口口口 |----|
口口口口 |----|
口口口口 |----|
15
口④口口 |①---|
口口③口 |②---|
口②口口 |③---|
口口①口 |④---|
16
口口①口 |①---|
口②口口 |②---|
口口③口 |③---|
口④口口 |④---|
17
口口口④ |①---|
口口口③ |②---|
口口口② |③---|
口口口① |④---|
18
口口口口 |--①-|
口①①口 |-②--|
口②②口 |③---|
口③③口 |----|
19
④口口口 |①---|
③口口口 |②---|
②口口口 |③---|
①口口口 |④---|
20
口口口口 |----|
口口①口 |----|
口①口口 |①---|
口口口口 |----|
21
口口口④ |①---|
口口口③ |②---|
口口口② |③---|
口口口① |④---|
22
口口口口 |----|
口①口口 |----|
口口①口 |①---|
口口口口 |----|
23
口口口④ |①---|
③口口口 |②---|
口口口② |③---|
①口口口 |④---|
24
口①口口 |①---|
口口②口 |②---|
口③口口 |③---|
口口④口 |④---|
25
口口④口 |①---|
口③口口 |②---|
口口②口 |③---|
口①口口 |④---|
26
④口口④ |①-②-|
③口口③ |-③--|
②口口② |④---|
口①①口 |----|
27
口口口口 |①---|
口①①口 |--②-|
口②②口 |----|
口③③口 |③---|
28
③口②口 |----|
口①口口 |①---|
口口①口 |②---|
口②口③ |③---|
29
口口口① |①---|
③⑤⑤② |②-③-|
口④④口 |④---|
①口口口 |⑤---|
30
口口口口 |①---|
口口口口 |----|
口口口口
口①①口

口③口口
口口②口
口②口口 |②---|
口口③口 |③---|
31
口⑤⑤① |①---|
③口口② |②-③-|
口④④口 |④---|
①口口口 |⑤---|
32
口口口④ |①---|
口口③口 |----|
口②口口 |--②-|
口①①口 |③-④-|
33
①①④④ |①---|
②②口口 |②---|
③③口口 |③---|
口口口口 |④---|
34
口口口口 |①---|
⑤口①① |②---|
口④②② |③-④-|
口口③口 |⑤---|
35
口口口口 |----|
口口口口 |----|
口口口口 |----|
口口口口 |----|
36
口②口③ |----|
口口①口 |①---|
口①口口 |②---|
③口②口 |③---|
37
①口口口 |①---|
口④④口 |②-③-|
③口口② |④---|
口⑤⑤① |⑤---|
38
①口口① |①---|
口口口口 |----|
口口口口
口口口口

口口口③
口②口口
口口②口 |②---|
③口口口 |③---|
39
①口口口 |①---|
口④④口 |②-③-|
③口口② |④---|
口⑤⑤① |⑤---|
40
①口口① |①---|
口口口口 |----|
口口口口 |----|
口口口口 |----|
41
口口①口 |①---|
口②口口 |②---|
口口③口 |③---|
口④口口 |④---|
42
口④口口 |①---|
口口③口 |②---|
口②口口 |③---|
口口①口 |④---|
43
口口①① |①---|
②②口口 |②---|
口口③③ |③---|
④④口口 |④---|
44
④④口口 |①---|
口口③③ |②---|
②②口口 |③---|
口口①① |④---|
45
口口口① |①---|
②口口口 |----|
口口口口 |②---|
口口口口 |----|
46
口口口口 |①---|
口口口口 |----|
口口口① |②---|
②口口口 |----|
47
口口口口 |①---|
口口口口 |----|
②口口口 |②---|
口口口① |----|
48
②口口口 |①---|
口口口① |----|
口口口口 |②---|
口口口口 |----|
49
口③③口 |①---|
口②②口 |--②-|
口①①口 |----|
口口口口 |③---|
50
①口口口 |①---|
口口口② |----|
口口口口 |②---|
口口口口 |----|
51
口口口口 |①---|
口口口口 |----|
①口口口 |②---|
口口口② |----|
52
口③③口 |①---|
口②②口 |--②-|
口①①口 |----|
口口口口 |③---|

accuracy: 99.5%
最終更新:2024年09月08日 17:40