アットウィキロゴ
YONA YONA DANCE
和田アキ子

ADVANCED

Level: 8
BPM: 145
Notes: 430

1
口口口口 |----|
口口口口 |----|
口口口口 |----|
口口口口 |----|
2
口口口口 |----|
口口口口 |----|
口口口口 |----|
口口口口 |----|
3
口③③口 |①--②|
口口口① |--③-|
口②②口
口①口口

口口口口
口④⑤⑥
口口口口 |--④-|
口口口口 |⑤-⑥-|
4
口③③口 |①--②|
①口口口 |--③-|
口②②口
口口①口

口口口口
⑥⑤④口
口口口口 |--④-|
口口口口 |⑤-⑥-|
5
口③③口 |①--②|
口口口① |--③-|
口②②口
口口①口

口口口口
口④⑤⑥
口口口口 |--④-|
口口口口 |⑤-⑥-|
6
口③③口 |①--②|
①口口口 |--③-|
口②②口
口①口口

口口口口
⑥⑤④口
口口口口 |--④-|
口口口口 |⑤-⑥-|
7
④④②② |①---|
口口口口 |--②-|
③③①① |----|
口口口口 |③-④-|
8
口口①口 |①--②|
口②②口 |--③-|
口口口①
口③③口

口口口口
口口口口
口④⑤⑥ |--④-|
口口口口 |⑤-⑥-|
9
口①口口 |①--②|
口②②口 |--③-|
①口口口
口③③口

口口口口
口口口口
⑥⑤④口 |--④-|
口口口口 |⑤-⑥-|
10
⑤②①⑤ |①--②|
②③③① |--③-|
⑥口口⑥ |--④-|
口④④口 |⑤-⑥-|
11
口①①口 |①---|
口③④⑤ |②-③-|
口口口口 |--④-|
口②②口 |--⑤-|
12
口口口口 |----|
口③口① |----|
口口②口 |--①-|
口口口口 |②-③-|
13
口①①口 |①---|
⑤④③口 |②-③-|
口口口口 |--④-|
口②②口 |--⑤-|
14
口口口口 |----|
①口③口 |----|
口②口口 |--①-|
口口口口 |②-③-|
15
④①①④ |①---|
口口口口 |②-③-|
②③③② |--④-|
口⑤口口 |--⑤-|
16
口口口口 |①-②-|
⑥口④口 |--③-|
②⑤口③ |--④-|
口口①口 |⑤-⑥-|
17
①①④⑤ |①---|
口口⑤④ |②-③-|
口口口口 |--④-|
③③②② |--⑤-|
18
口口口口 |--①-|
口口口口 |-②--|
②口口口
①口口口

④口口④
③口口口
口口口口 |③-④-|
⑤口口⑤ |--⑤-|
19
口①①口 |①---|
⑤④③口 |②-③-|
口口口口 |--④-|
口②②口 |--⑤-|
20
口口口口 |--①-|
④口⑥③ |-②--|
口⑤口② |③-④-|
口口口① |⑤-⑥-|
21
口①①口 |①---|
口③④⑤ |②-③-|
口口口口 |--④-|
口②②口 |--⑤-|
22
口口口口 |--①-|
③⑥口④ |-②--|
②口⑤口 |③-④-|
①口口口 |⑤-⑥-|
23
口口①口 |①-②-|
④⑧⑤口 |③-④-|
口⑦⑥② |⑤-⑥-|
口③口口 |⑦-⑧-|
24
①②口① |--①-|
②③口⑤ |--②-|
口口④② |--③-|
口口②口 |④-⑤-|
25
口④①口 |①-②-|
④口③口 |③-④-|
口②口口
口口口口

口口⑤⑤
口口口口
⑥口口⑦ |--⑤-|
口口⑦口 |⑥-⑦-|
26
口口口口 |--①-|
③②①口 |-②--|
③②①口 |③---|
口口口口 |----|
27
③⑧⑧⑥ |①②-③|
口⑤②口 |--④⑤|
⑦①④⑦ |-⑥--|
口口口口 |⑦-⑧-|
28
口口口口 |--①-|
口③口口 |②-③-|
口口②口
口①口口

口口口口
口口④口
口⑤口⑥ |④-⑤-|
⑦⑦⑥口 |⑥-⑦-|
29
⑥⑥①① |①---|
⑥②口① |②-③-|
④口③口 |④-⑤-|
口④⑤⑤ |⑥---|
30
口口口口 |①---|
口口①口 |----|
口①①口
口口口口

口口口口
口②口口
④口③口 |②-③-|
口④⑤⑤ |④-⑤-|
31
①①⑥⑥ |①---|
①口②⑥ |②-③-|
口③口④ |④-⑤-|
⑤⑤④口 |⑥---|
32
口口口口 |①---|
口①口口 |----|
口①①口
口口口口

口口口口
口④口②
口口③口 |--②-|
口口口口 |③-④-|
33
⑤①⑤① |①---|
②口②口 |②-③-|
口③口口 |④---|
④口④口 |⑤---|
34
口口口口 |①-②-|
口①口① |③---|
口口②口
口③口③

口⑥⑥口
⑥⑤⑤⑥
④口口④ |④-⑤-|
口口口口 |⑥---|
35
口③口① |①---|
口口口口 |②---|
口口口口 |③---|
④口②口 |④---|
36
①口口口 |①-②-|
口④口口 |③-④-|
口口③口
口②口口

口口口口
口口⑤口
口⑥口⑦ |⑤-⑥-|
⑧⑧⑦口 |⑦-⑧-|
37
⑥⑥①① |①---|
⑥②口① |②-③-|
④口③口 |④-⑤-|
口④⑤⑤ |⑥---|
38
口口口口 |①---|
口口①口 |----|
口①①口
口口口口

口口口口
口②口口
④口③口 |②-③-|
口④⑤⑤ |④-⑤-|
39
①①⑥⑥ |①---|
①口②⑥ |②-③-|
口③口④ |④-⑤-|
⑤⑤④口 |⑥---|
40
口口口口 |①---|
口①口口 |----|
口①①口 |----|
口口口口 |----|
41
口②口① |①-②-|
④口③口 |③-④-|
口⑥口⑤ |⑤-⑥-|
⑧口⑦口 |⑦-⑧-|
42
④口④口 |①---|
口③口③ |②---|
②口②口 |③---|
口①口① |④---|
43
⑤①口① |①---|
口④口口 |②---|
口口③口 |--③-|
口②口② |④-⑤-|
44
⑦②⑥③ |①-②-|
⑦⑤④① |③-④-|
①④⑤⑦ |⑤-⑥-|
③⑥②⑦ |⑦---|
45
口①口口 |①--②|
口②②① |--③-|
口④⑤⑥ |--④-|
口③③口 |⑤-⑥-|
46
口口①口 |①--②|
①②②口 |--③-|
⑥⑤④口 |--④-|
口③③口 |⑤-⑥-|
47
口口①口 |①--②|
口②②口 |--③-|
口口口①
口③③口

口口口口
口口口口
口④⑤⑥ |--④-|
口口口口 |⑤-⑥-|
48
口①口口 |①--②|
口②②口 |--③-|
①口口口
口③③口

口口口口
口口口口
⑥⑤④口 |--④-|
口口口口 |⑤-⑥-|
49
口口口口 |①---|
③③①① |--②-|
口口口口 |----|
④④②② |③-④-|
50
口③③口 |①--②|
口口口① |--③-|
口②②口
口口①口

口口口口
口④⑤⑥
口口口口 |--④-|
口口口口 |⑤-⑥-|
51
口③③口 |①--②|
①口口口 |--③-|
口②②口
口①口口

口口口口
⑥⑤④口
口口口口 |--④-|
口口口口 |⑤-⑥-|
52
口⑥⑥口 |①--②|
④⑥⑥④ |--③-|
②③③① |--④-|
⑤②①⑤ |⑤-⑥-|

accuracy: 99.5%
最終更新:2024年09月08日 17:40