アットウィキロゴ
YONA YONA DANCE
和田アキ子

EXTREME

Level: 9.5
BPM: 145
Notes: 618

1
口口口口 |----|
口口口口 |----|
口口口口 |----|
口口口口 |----|
2
口口口口 |----|
口口口口 |----|
口口口口 |----|
口口口口 |----|
3
口口②③ |①--②|
口口口口 |--③-|
口③口②
口口①①

⑦口⑧口
⑨⑥口④
口口⑤口 |-④⑤⑥|
口口口口 |⑦-⑧⑨|
4
③②口口 |①--②|
口口口口 |--③-|
②口③口
①①口口

口口口⑦
④口⑥口
口⑤口⑨ |-④⑤⑥|
口⑧口口 |⑦-⑧⑨|
5
口①①口 |①--②|
口③⑤② |--③-|
⑨⑥②④ |-④⑤⑥|
⑦口⑧③ |⑦-⑧⑨|
6
口①①口 |①--②|
②⑤③口 |--③-|
④口⑥⑨ |-④⑤⑥|
③②⑧⑦ |⑦-⑧⑨|
7
③④①口 |①②-③|
③⑤②口 |--④⑤|
口②⑤口
①口口④

口口口⑥
⑧口⑩⑥
口口口口 |-⑥--|
⑦口⑨口 |⑦⑧⑨⑩|
8
口口②③ |①--②|
口口口口 |--③-|
口③口②
口①口①

⑦口⑧口
⑨⑥口④
口口⑤口 |-④⑤⑥|
口口口口 |⑦-⑧⑨|
9
③②口⑦ |①--②|
④口⑥口 |--③-|
②⑤③⑨ |-④⑤⑥|
①⑧①口 |⑦-⑧⑨|
10
③口①④ |①②-③|
口②口口 |--④-|
①口②口
④口口③

口口口口
⑤⑥⑦口
口⑥⑥口 |--⑤-|
口口⑤口 |⑥-⑦-|
11
③口①① |①---|
口口口口 |②-③-|
③口口口
口口②②

口④口⑥
口口⑤口
口④口⑥ |--④-|
口口口口 |⑤-⑥-|
12
口口口口 |----|
①口③口 |----|
口②口口 |--①-|
口口①口 |②-③-|
13
口口①① |①---|
③口口口 |②-③-|
口口口口
③口②②

口口口口
口④口⑥
口口⑤口 |--④-|
口④口⑥ |⑤-⑥-|
14
口口口口 |----|
口③口① |----|
口口②口 |--①-|
口①口口 |②-③-|
15
①①口口 |①-②-|
口口②④ |③-④-|
口口口④
③③口口

口⑦口⑦
⑤口⑥口
⑤口口口 |--⑤-|
口口口口 |⑥-⑦-|
16
②口②口 |①-②-|
口⑥口④ |--③-|
口①⑤① |--④-|
③④③口 |⑤-⑥-|
17
①①口口 |①-②-|
口口③③ |③-④-|
②②口口
口口④④

口口⑤口
口⑥⑥口
⑥⑥⑥⑥ |--⑤-|
口⑤口口 |--⑥-|
18
①②③④ |--①-|
口⑤⑤④ |-②--|
口⑤口口 |③-④-|
④④口口 |--⑤-|
19
①①口③ |①---|
口口口口 |②-③-|
口口口③
②②口口

⑥口④口
口⑤⑦口
⑥口④口 |--④-|
口口口口 |⑤-⑥⑦|
20
口①②③ |--①-|
口⑥口④ |-②--|
口口⑤口 |③-④-|
口④口口 |⑤-⑥-|
21
①①口口 |①---|
口口口③ |②-③-|
口口口口
②②口③

口口口口
⑥口④口
口⑤⑦口 |--④-|
⑥口④口 |⑤-⑥⑦|
22
④①②③ |--①-|
口⑤⑥口 |-②--|
口口⑤口 |③-④-|
口口口④ |⑤-⑥-|
23
口④①② |①-②-|
④口口① |③-④-|
口口口口
口口③口

⑤口⑦口
口⑧⑧口
口⑦口口 |⑤-⑥-|
口⑥口口 |⑦-⑧-|
24
口②口① |--①-|
口⑤口② |--②-|
②③④③ |--③-|
①口②口 |④-⑤-|
25
①④口④ |①-②-|
⑦口③⑤ |③-④-|
②⑥⑧口 |--⑤-|
⑦口口⑤ |⑥-⑦⑧|
26
⑤④③口 |①②③-|
⑤④③口 |-④--|
②口口口 |⑤---|
口①口口 |----|
27
④①口③ |①②-③|
口⑤②口 |--④⑤|
口口④①
口口③口

口口⑥口
⑩口⑧口
口⑨口⑦ |-⑥--|
口⑥口口 |⑦⑧⑨⑩|
28
①口口② |--①-|
口口口口 |②-③-|
口口③③
①口口②

⑥④口口
⑦⑤口口
口口口口 |④-⑤-|
口⑥④口 |⑥-⑦-|
29
口②①① |①---|
口③口① |②-③-|
①①口口
①口②口

④口⑥⑥
⑤口口⑥
⑥⑥口口 |④-⑤-|
⑥④口口 |⑥---|
30
②①口口 |①---|
口①①口 |②---|
口口①①
口口口口

口口③⑤
口口④⑥
口口口口 |③-④-|
口③⑤口 |⑤-⑥-|
31
①①②口 |①---|
①口③口 |②-③-|
口口①①
口②口①

⑥⑥口④
⑥口口⑤
口口⑥⑥ |④-⑤-|
口口④⑥ |⑥---|
32
口口①② |①---|
口①①口 |②---|
①①口口
口口口口

口口口⑥
口⑤口⑥
口口口④ |③-④-|
口③口④ |⑤-⑥-|
33
①⑤口⑤ |①---|
②口②口 |②-③-|
①③①⑤ |④---|
④口④口 |⑤---|
34
口口口口 |①-②-|
口①口① |③---|
口口②口
口③口③

④⑥⑥⑤
口⑤口⑤
口⑤⑥⑥ |④-⑤-|
口口④口 |⑥---|
35
口口口口 |①-②-|
①⑦③⑤ |③-④-|
口口口口 |⑤-⑥-|
⑧②⑥④ |⑦-⑧-|
36
②口②② |①-②-|
①口④④ |③-④-|
③④③③
口口口口

⑦⑤口口
⑧⑥口口
口口口口 |⑤-⑥-|
口⑦⑤口 |⑦-⑧-|
37
口②①① |①---|
口③口① |②-③-|
①①口口
①口②口

④口⑥⑥
⑤口口⑥
⑥⑥口口 |④-⑤-|
⑥④口口 |⑥---|
38
口①口口 |①-②-|
③①①口 |③-④-|
口口①①
④口②口

口口⑤⑦
口口⑥⑧
⑥⑧口口 |⑤-⑥-|
口⑤⑦口 |⑦-⑧-|
39
①①②口 |①---|
①口③口 |②-③-|
口口①①
口②口①

⑥⑥口④
⑥口口⑤
口口⑥⑥ |④-⑤-|
口口④⑥ |⑥---|
40
口④①③ |①-②-|
口①①口 |③-④-|
①①口口
口②口口

⑧口⑥口
⑧口⑥口
口口口口 |⑤-⑥-|
口⑦口⑤ |⑦-⑧-|
41
口口口② |①-②-|
口①④口 |③-④-|
口①①③
口口口口

口⑤⑧口
⑥口口口
口⑦口口 |⑤-⑥-|
口口口口 |⑦-⑧-|
42
③③⑤② |①-②-|
⑤⑥⑦② |③-④-|
④⑦⑥⑤ |⑤-⑥-|
④⑤①① |⑦---|
43
①口②口 |①---|
②②口① |②---|
①口②②
口②口①

口口口口
⑤口⑤口
口④口口 |--③-|
③口③口 |④-⑤-|
44
口③口口 |①-②-|
口④口口 |③-④-|
口口②①
口③口口

⑤口口⑦
⑥口⑦⑦
口⑦⑦口 |⑤-⑥-|
⑤口口口 |⑦---|
45
口口②③ |①--②|
口口口口 |--③-|
口③口②
口口①①

⑦口⑧口
⑨⑥口④
口口⑤口 |-④⑤⑥|
口口口口 |⑦-⑧⑨|
46
③②口口 |①--②|
口口口口 |--③-|
②口③口
①①口口

口口口⑦
④口⑥口
口⑤口⑨ |-④⑤⑥|
口⑧口口 |⑦-⑧⑨|
47
⑨①①口 |①--②|
口③⑤② |--③-|
口⑥⑧④ |-④⑤⑥|
⑦口②③ |⑦-⑧⑨|
48
口①①口 |①--②|
②口③口 |--③-|
口口口口
③②口口

口口口口
⑧⑤口⑨
④口⑥口 |-④⑤⑥|
口口口⑦ |⑦-⑧⑨|
49
③④①口 |①②-③|
口⑤②口 |--④⑤|
③口口口
口④①口

口口口⑥
⑧口⑩口
口口口⑥ |-⑥--|
⑦口⑨口 |⑦⑧⑨⑩|
50
⑦③②③ |①--②|
口⑥⑧④ |--③-|
口口⑤② |-④⑤⑥|
⑨①口① |⑦-⑧⑨|
51
③②③口 |①--②|
口口口口 |--③-|
②口口口
口①①口

口口口⑦
④口⑥口
口⑤口口 |-④⑤⑥|
口⑧⑨口 |⑦-⑧⑨|
52
③口④④ |①②-③|
口②口① |--④-|
①口②口
口口口③

口⑩口口
⑧⑩⑨口
口⑦⑨⑤ |-⑤⑥⑦|
口口⑥口 |⑧-⑨⑩|

accuracy: 99.5%
最終更新:2024年09月08日 17:41