アットウィキロゴ
ルナティックモンスター
フーリンキャットマーク

EXTREME

Level: 9.3
BPM: 136
Notes(hold): 597(57)

1
口口口口 |----|
口口口口 |----|
口口口口 |----|
口口口口 |----|
2
口口口口 |----|
口口口口 |----|
口口口口 |----|
口口口口 |----|
3
①⑦③⑧ |①-②-|
口⑥口口 |③-④-|
⑤②⑤④ |⑤-⑥⑦|
口⑦口⑧ |--⑧-|
4
口⑤口口 |--①‐|
①口口③ |②-③-|
④口④口 |④--⑤|
口⑤②口 |----|
5
口⑤③① |①-②-|
⑥⑦⑥口 |③-④-|
口口④② |⑤--⑥|
口⑤口口 |--⑦-|
6
口③口① |①-②-|
⑥口⑤口 |③-④-|
口④口② |⑤---|
口口口口 |⑥---|
7
⑦⑥⑦口 |①-②-|
④口②口 |③-④-|
⑤③⑤① |⑤--⑥|
口⑥口口 |--⑦-|
8
口④口④ |--①-|
⑥①⑤③ |②-③-|
口口②口 |④-⑤-|
口口⑥口 |⑥---|
9
口口口口 |①---|
口口③① |----|
口②口口 |----|
口①口口 |--②③|
10
口①口① |①-②-|
口口口③ |③-④-|
口口口口 |⑤-⑥-|
口③②④ |⑦---|

⑦口⑤口
⑤⑥⑥口
口⑥⑤⑦
口口⑦口
11
口①口① |①-②-|
口口口③ |③-④⑤|
口口②口 |⑥-⑦⑧|
口③口口 |⑨-⑩-|

⑧口⑥口
⑦口⑤口
④⑥口⑥
⑩⑩⑥⑨
12
④②⑤① |①-②-|
口①口③ |③-④-|
③⑤②⑤ |⑤--⑥|
口口⑤口 |⑦-⑧-|

口口口口
⑥⑥口口
口口⑧口
口口口⑦
13
⑥⑤口① |①-②-|
⑥口∨③ |③-④-|
②口⑧⑤ |⑤--⑥|
④口口⑦ |⑦-⑧-|
14
口口口口 |①-②-|
口∨口口 |③-④-|
①②口口 |⑤---|
口口口口 |⑥---|

④口口④
口>⑤口
口口口③
口⑤<口

口口口口
⑥口口∨
|口口|
∧口口⑥

口口口口
口口6口
口31口
口6口口
15
口口口口 |①---|
1∨口口 |----|
口①①口 |②---|
口口∧1 |--③④|

口口口口
③④④③
口22口
口口口口
16
①①< |①---|
口口口口 |②---|
口口口口 |③---|
口口口口 |④---|

④22④
口口口口
口③③口
口口口口
17
⑤<口口 |①-②-|
⑤⑦④ |③-④-|
③⑧>① |⑤-⑥-|
口口①< |⑦-⑧-|

6口口口
口6口口
口口口2
口口2口
18
⑤①③⑤ |①-②-|
口④④口 |③-④-|
③口口① |⑤--⑥|
⑥②②⑥ |--⑦-|

口⑦⑦口
口||口
口||口
口∧∧口
19
口口口口 |----|
口口口口 |----|
口口口口 |----|
口口口口 |----|
20
口11口 |①---|
口口口口 |----|
口口口口 |----|
口口口口 |----|
21
④口∨口 |①---|
口口|口 |----|
③②①口 |②③-④|
口口口口 |⑤---|

口口口口
口口口口
口口5口
口口口口
22
④口口③ |①---|
口口②① |②---|
口②口口 |③-④-|
③①口④ |--⑤-|

口口∨口
口口|口
口口⑤口
口口口口
23
③口口口 |----|
口口口口 |----|
②①口口 |①②-③|
口口口口 |----|
24
口口口口 |①---|
口口口口 |②---|
口口1口 |③---|
①②③④ |④---|
25
口口口口 |①---|
③②①口 |----|
口口|口 |②③-④|
④口∧口 |⑤---|

口口口口
口口5口
口口口口
口口口口
26
③①口④ |①---|
口②口口 |②---|
口口②① |③-④-|
④口口③ |--⑤-|

口口口口
口口⑤口
口口|口
口口∧口
27
口④口口 |----|
②①3口 |----|
口口口口 |①②-③|
③口④口 |--④-|
28
③口②口 |①---|
口口口① |②-③-|
①口口口 |--④-|
口②口③ |----|

口④口④
口口口口
④口④口
口口口口
29
口口口③ |①-②-|
口口②口 |③---|
口③口口 |④-⑤-|
口①口① |⑥-⑦-|

④④∨口
⑥⑥|口
口口⑦口
口口⑤口
30
口口口口 |①---|
口口口口 |②---|
口①3口 |③-④-|
③②④口 |⑤-⑥-|

口口口口
口口⑥口
口⑤口口
口口口口
31
口①口① |①-②-|
口③口口 |③---|
口口②口 |④-⑤-|
口口口③ |⑥-⑦-|

⑥⑥口口
口口⑤口
―⑦口
④④口口
32
口口⑤口 |①---|
①②口口 |②---|
口口4口 |③---|
③④口口 |④-⑤-|
33
口①口① |①-②-|
口③②口 |③---|
口口口口 |④-⑤-|
口口口③ |⑥-⑦-|

口口⑤口
口口⑦口
⑥⑥|口
④④∧口
34
口②④口 |①---|
③①3口 |②---|
口口口口 |③-④-|
口口口口 |⑤-⑥-|

口口口口
口⑤口口
口口⑥口
口口口口
35
口口口③ |①-②-|
口口②口 |③---|
口③口口 |④-⑤-|
口①口① |⑥-⑦-|

④④口口
―⑦口
口口⑤口
⑥⑥口口
36
⑥――< |①-②-|
口口口口 |③-④-|
②―<口 |⑤-⑥-|
―④口 |--⑦-|

7口口口
口口1口
3口口口
口口5口
37
⑦口口口 |--①-|
口口⑥口 |②-③-|
口⑤③① |④-⑤-|
口口④② |⑥-⑦-|
38
口⑦①口 |--①-|
②⑥口口 |②-③-|
口口③口 |④-⑤-|
④口⑤口 |⑥⑦--|
39
口⑥⑥④ |--①-|
④口②③ |②-③④|
③⑦⑦口 |--⑤-|
⑤①⑤① |⑥-⑦-|
40
④口口③ |①-②-|
②②①④  |③-④-|
①口口① |--⑤-|
③③④② |⑥-⑦-|

口口口⑦
口口⑥口
口口口⑤
口⑦口口
41
②④<口 |--①-|
口③口⑤ |②-③④|
①口口口 |----|
口口②口 |--⑤-|
42
⑧1口口 |①-②-|
③⑦口口 |③-④⑤|
⑥>⑤口 |--⑥-|
②口④口 |⑦-⑧-|
43
口口口④ |①-②-|
口口③口 |③-④-|
口口1② |⑤-⑥-|
口口口口 |⑦-⑧-|

⑤口⑤口
口⑧―<
口口口口
⑥⑦⑥⑦
44
――⑥ |①-②-|
口口口口 |③-④-|
口>―② |⑤-⑥-|
口④―< |----|

口口口口
口1口口
口口口3
口5口口
45
口口口1 |①---|
口口口口 |----|
口口口口 |----|
口口口口 |----|
46
①口①口 |①-②-|
③口③口 |③-④-|
口④口④ |⑤-⑥⑦|
②口②口 |⑧-⑨-|

口⑤口⑦
口口口⑥
⑤口⑤口
⑧⑤⑨⑧
47
③口②④ |①-②-|
④①①口 |③-④-|
口②口③ |⑤-⑥⑦|
口口口口 |⑧-⑨-|

口⑤口口
口口⑥⑦
⑤⑨⑤口
⑧⑤口⑧
48
①口③① |①-②-|
③口口口 |③-④-|
⑤口④② |⑤--⑥|
口⑤口口 |⑦-⑧-|

⑦口口⑦
口∨口⑥
口⑧口口
口口口口
49
④①③④ |①-②-|
口口∨口 |③-④-|
③口②① |⑤---|
口口口口 |⑥---|

口口口口
口⑤<⑥
口口口口
⑥>⑤口

口口口口
口6口口
口13口
口口6口
50
①口①口 |①-②-|
③④③口 |③-④-|
口②口② |⑤--⑥|
口口口口 |⑦-⑧-|

⑧⑤口⑦
口口⑧⑥
⑤⑧⑤口
⑦⑤口⑧
51
口①①口 |--①-|
口③口口 |②-③-|
口口③口 |④-⑤-|
口②②口 |⑥---|

⑤>―⑥
口口口④
④口口口
⑥―<⑤
52
口∨口口 |①---|
口|①口 |②---|
口①|口 |③---|
口口∧口 |④-⑤-|

口口④1
③口3②
口3⑤口
1口口口
53
口①口① |①-②-|
口口口口 |③-④-|
口口口口 |⑤-⑥-|
④③②③ |⑦---|

⑦口⑤口
⑤⑥⑥口
口⑥⑤⑦
口口⑦口
54
口①口① |①-②-|
口③④③ |③-④-|
②口②口 |⑤--⑥|
口口口口 |⑦-⑧-|

⑥口⑤口
⑥口口口
口⑤口⑤
⑦⑧⑤⑦
55
口②口① |①-②-|
口①④③ |③-④-|
③口②口 |⑤--⑥|
口口口口 |⑦-⑧-|

口口⑤口
⑥⑥口口
口⑤⑧⑤
⑦口⑤⑦
56
①③口① |①-②-|
口口④③ |③-④-|
口②口口 |⑤--⑥|
口④②口 |⑦-⑧-|

口口口⑦
口⑤∨口
⑥口⑧⑤
⑥口口口
57
④③①④ |①-②-|
①∨口③ |③-④-|
口②口口 |⑤---|
口口口口 |⑥---|

口口口口
⑥>⑤∨
|口口|
∧⑤<⑥

口口口口
口口6口
口31口
口6口口
58
口口口口 |①---|
1∨口口 |②---|
③①①② |③---|
口口∧1 |④-⑤⑥|

口口口口
⑤⑥⑥⑤
口口口口
口④④口

口口口口
口口口口
口33口
口口口口
59
①①< |①---|
口口口口 |②---|
口口口口 |③---|
口口口口 |④---|

③22④
口口口口
口②②口
④口口③
60
⑤<口口 |①-②-|
⑤⑦④ |③-④-|
③⑧>① |⑤-⑥-|
口口①< |⑦-⑧-|

6口口口
口6口口
口口口2
口口2口
61
⑤①③⑤ |①-②-|
口④④口 |③-④-|
③口口① |⑤--⑥|
⑥②②⑥ |--⑦-|

口⑦⑦口
口||口
口||口
口∧∧口
62
口口口口 |----|
口口口口 |----|
口口口口 |----|
口口口口 |----|
63
口11口 |①---|
口口口口 |----|
口口口口 |----|
口口口口 |----|
64
口口口口 |----|
口口口口 |----|
口口口口 |----|
口口口口 |----|
最終更新:2022年04月07日 17:09