アットウィキロゴ
XENOViA
BlackY

BASIC

Level: 7
BPM: 208
Notes: 576 (25)

1
口口口口 |----|
口口口口 |----|
口口口口 |----|
口口口口 |----|
2
口口口口 |①---|
口口口口
口口口口
①―<口

口口口口
口口口口 |--②-|
口>―②
②口口口

③―<口
口口口口
口口口③ |----|
口口口口 |③---|
3
①口口口 |--①-|
口>―① |----|
口口口口
口口口口

口口口口
口口口②
口口口口 |②---|
口口口口 |----|
4
口口口口 |①---|
①―<口
口口口口
口口口口

口口口口
②口口口 |--②-|
口>―②
口口口口

口口口口
口口口口
口口口③ |----|
③―<口 |--③-|
5
口口①口 |①---|
口口②口 |②---|
口口③口 |③---|
③口④口 |④---|
6
③口③口 |①---|
口①口① |----|
口口口口 |--②-|
口②口② |--③-|
7
口③<① |----|
口>③口 |----|
口③<口 |--①-|
②>③口 |②-③-|
8
口口口口 |----|
口口口口 |----|
口口口口 |----|
口口口口 |----|
9
口口口口 |----|
口口口口 |----|
口口口口 |----|
口口口口 |----|
10
口①口口 |①---|
口口①口
口①口口
口口①口

口口口口
②―<口 |②---|
口口口口
口口口口

口口口口
③口口口
口>―③ |--③-|
口口口口 |----|
11
口口口口 |①---|
口口口口
口口口①
①―<口

口>―②
口口口口 |--②-|
口口口口
②口口口

口口口③
口口口口
口③③口 |----|
口口口口 |③---|
12
口口口口 |①-②-|
①②③④ |③-④-|
口口口口 |⑤-⑥-|
⑤⑥⑦⑧ |⑦-⑧-|
13
①②③④ |①-②-|
口口口口 |③-④-|
⑤⑥⑦⑧ |⑤-⑥-|
口口口口 |⑦-⑧-|
14
口口口口 |①---|
口①①口
口口口口
口口口口

口口口口
③―<口 |②-③-|
口口口口
口②②口

口口口口
④口口口
口口口口 |--④-|
口>―④ |----|
15
口口口口 |①---|
口口口口
①―<口
口口口①

口口口口
口>―② |--②-|
②口口口
口口口口

③――<
口口口③
口口口口 |----|
口口口口 |③---|
16
口口口口 |①---|
口口口口 |----|
口口②② |②---|
口口①① |----|
17
①⑦⑦④ |①-②-|
口⑤③口 |③-④-|
口②⑥口 |⑤-⑥-|
①口口口 |⑦---|
18
②口口③ |①---|
②口口③ |②---|
口④⑤口 |③---|
①口口① |④-⑤-|
19
口③④口 |①-②-|
口③④口 |③---|
⑤口口⑥ |④---|
口①②口 |⑤-⑥-|
20
口口口口 |①-②-|
口⑤⑥口 |③---|
口③④口 |④---|
①③④② |⑤-⑥-|
21
①①④④ |①---|
口口口口 |②-③-|
②③口⑤ |--④-|
②③口⑤ |--⑤-|
22
口口口口 |----|
①①①① |①---|
口②③口 |②---|
口②③口 |③---|
23
①口口② |①-②-|
③口口④ |③-④-|
⑦口口⑧ |⑤-⑥-|
⑤口口⑥ |⑦-⑧-|
24
③口口③ |①---|
口①①口 |--②-|
口②②口 |----|
口口口口 |③---|
25
口①②口 |①-②-|
口③④口 |③-④-|
口⑤⑥口 |⑤-⑥-|
口⑦⑧口 |⑦-⑧-|
26
①口口口 |①---|
口⑤③口 |②-③-|
口口口② |--④-|
④口口口 |--⑤-|
27
口口口③ |--①-|
②口④口 |--②-|
口⑤口口 |--③-|
口①口口 |④-⑤-|
28
口口口④ |①---|
口③口口 |②-③-|
②口⑤口 |--④-|
口口口① |--⑤-|
29
③③①口 |--①-|
口口④④ |--②-|
⑤⑤口② |--③-|
口口口口 |④-⑤-|
30
口口口④ |①---|
口②口口 |----|
口口②口 |②-③-|
③口①① |--④-|
31
③③②口 |--①-|
口口④④ |--②-|
⑤⑤口① |--③-|
口口口口 |④-⑤-|
32
口口口⑤ |①-②-|
⑥②口口 |③-④-|
口口③⑦ |⑤-⑥-|
⑧④①① |⑦-⑧-|
33
⑤①口口 |①-②-|
口口②⑥ |③-④-|
⑦③口口 |⑤-⑥-|
口口④⑧ |⑦-⑧-|
34
口口口口 |----|
①①口口 |----|
口口②② |①--②|
③③口口 |--③-|
35
②口①① |①-②-|
口口口④ |--③-|
口③⑤口 |--④-|
口⑥口口 |⑤-⑥-|
36
口口口④ |①---|
口③口口 |②-③-|
②口口口 |--④-|
口口⑤① |--⑤-|
37
③③①口 |--①-|
口口④④ |--②-|
⑤⑤口② |--③-|
口口口口 |④-⑤-|
38
口口口④ |①---|
口③口口 |②-③-|
口口②⑤ |--④-|
口口①① |--⑤-|
39
③口口④ |--①-|
③口①④ |--②-|
口⑤口口 |--③-|
口⑤口② |④-⑤-|
40
口④④口 |①---|
口③口口 |②-③-|
②口①口 |--④-|
⑤口①⑤ |--⑤-|
41
口口口④ |--①-|
口口口口 |②-③-|
口③②① |--④-|
⑤口口口 |--⑤-|
42
口口口口 |①---|
①――< |----|
口口口口 |----|
口口口口 |----|
43
口口口口 |①---|
口口口口 |----|
口口口口 |----|
口口①① |----|
44
口口口口 |①---|
口口②② |----|
口口①① |②---|
口口口口 |----|
45
④③②① |①---|
口口口口 |②---|
口口口口 |③---|
口口口口 |④---|
46
口口③口 |①---|
①口口口 |----|
③口口① |②---|
口②②① |③---|
47
②④口口 |①---|
口①①口 |②---|
口口②④ |③---|
口③③口 |④---|
48
口口口② |①---|
③①①口 |②---|
③②口口 |③---|
口④④口 |④---|
49
口②②口 |①---|
口口口① |②---|
口③④① |③---|
③口口④ |④---|
50
②②③③ |①---|
口①①口 |----|
口口口口 |②---|
口口口口 |③---|
51
口口口口 |①---|
口④②口 |②---|
口③③口 |③---|
②①①④ |④---|
52
口②③口 |①---|
⑤口口④ |②-③-|
④口口⑤ |--④-|
口①①口 |--⑤-|
53
口口口口 |--①-|
口①①口 |----|
口①①口 |----|
口口口口 |----|
54
①①①① |①---|
④④口口 |----|
③③口口 |②--③|
②②口口 |--④-|
55
②口口口 |----|
口口口① |①---|
口口口① |②---|
口口口口 |----|
56
口⑤④③ |①---|
口口口口 |--②-|
②①口口 |③--④|
②①口口 |--⑤-|
57
口口口口 |--①-|
②口口口 |----|
口口口口 |②---|
口口口① |----|
58
口口口口 |①---|
口①①口 |----|
口①①口 |②---|
②口口② |----|
59
口口口口 |----|
口口口口 |----|
口口口口 |①---|
口①①口 |----|
60
口口口口 |①---|
口②②口 |----|
口①①口 |②---|
口口口口 |----|
61
口①①口 |①---|
②口口② |----|
口口口口 |②---|
口口口口 |----|
62
①①①① |①---|
口口口口 |----|
口口口口 |----|
口口口口 |----|
63
口口口① |①---|
口口②口 |--②-|
口③口口 |----|
口口口口 |③---|
64
①口口④ |①---|
口口口口 |--②-|
口口③口 |--③-|
口②口口 |--④-|
65
①口②口 |----|
口口口口 |--①-|
口口口口 |----|
口口口口 |②---|
66
②②口口 |①---|
口口③③ |----|
④④口口 |②--③|
口①口口 |--④-|
67
口口②口 |①---|
口②口口 |②---|
口口①① |----|
③―<口 |--③-|
68
口③③口 |----|
口口口① |--①-|
口②口口 |--②-|
①口口口 |--③-|
69
①口口① |----|
口口口口 |--①-|
口口口口 |----|
―②口 |②---|
70
口口口口 |----|
口①―< |----|
口口口口 |①---|
口口①口 |----|
71
口口口① |①---|
口①②口 |--②-|
口③口口 |----|
口口口口 |③---|
72
①口口④ |①---|
口口口口 |--②-|
口口③口 |--③-|
口②口口 |--④-|
73
口口口口 |----|
③口口③ |--①-|
②口口② |--②-|
①口口① |--③-|
74
①口口① |--①-|
口③②口 |--②-|
口②③口 |----|
口口口口 |③---|
75
口①②口 |①---|
①口口② |--②-|
口口口口 |----|
口③③口 |③---|
76
①口口② |①---|
口①②口 |--②-|
口口口口 |----|
③口口③ |③---|
77
口①②口 |①---|
口口口口 |--②-|
①口口② |----|
口③③口 |③---|
78
――④ |①---|
口口③口 |②---|
口②口口 |③---|
①口口口 |④---|
79
口口口口 |----|
口口口口 |----|
口口口口 |----|
口口口口 |----|
80
口④口① |①---|
③口口口 |②---|
口②口口 |③---|
①口口口 |④---|
81
①口口① |①---|
口③③口 |--②-|
口③③口 |----|
②口口② |--③-|
82
①口口口 |----|
口口口② |①---|
③口口口 |②---|
口口口口 |③---|
83
口口③③ |①---|
口④④口 |②---|
口口②口 |③---|
口口①口 |④---|
84
②②口口 |①---|
口④④口 |②---|
①①③③ |③---|
口口口口 |④---|
85
口口②② |①---|
口口④④ |②---|
口口③③ |③---|
①口口口 |④---|
86
②②口口 |①---|
④④口口 |②---|
③③口口 |③---|
口口口① |④---|
87
④②②④ |①---|
口口口口 |②---|
口口口口 |③---|
③①①③ |④---|
88
口④③口 |①---|
口②①口 |②---|
口①②口 |③---|
口③④口 |④---|
89
②口口② |①---|
口②②口 |②---|
④口口口 |③---|
①口口③ |④---|
90
口②②口 |①---|
②口口② |②---|
口③口口 |③---|
口口①④ |④---|
91
口③③口 |①---|
口④④口 |②---|
口口②② |③---|
①①口口 |④---|
92
①③③① |①---|
口口口口 |②---|
口口口口 |③---|
②④④② |④---|
93
口口③③ |①---|
口②④④ |②---|
①口口口 |③---|
口口口口 |④---|
94
口①口口 |①---|
②口口口 |②---|
口③口口 |③---|
④口口口 |④---|
95
①口口① |①---|
口②②口 |②---|
③口口③ |③---|
口④④口 |④---|
96
口④④口 |①---|
③口口③ |②---|
口②②口 |③---|
①口口① |④---|
97
①口口① |①---|
口口口口 |----|
口口口口 |----|
口口口口 |----|
98
口口口口 |----|
口口口口 |----|
口口口口 |----|
口口口口 |----|
99
①口口口 |①---|
口②口口 |--②-|
口口③口 |----|
口口口口 |③---|
100
口口口口 |--①-|
口口①口 |----|
口②口③ |②---|
口口口口 |③---|
101
口口③口 |①---|
口②口口 |--②-|
①口口口 |----|
口口口口 |③---|
102
口口口口 |----|
口口口口 |----|
口口口口 |----|
口口口口 |----|
103
①口口口 |①---|
口口口口 |----|
口口口口 |----|
口口口口 |----|
104
口②①口 |①-②-|
口④③口 |③-④-|
口⑥⑤口 |⑤-⑥-|
口⑧⑦口 |⑦-⑧-|
最終更新:2022年04月07日 17:11