アットウィキロゴ
XENOViA
BlackY

ADVANCED

Level: 10.2
BPM: 208
Notes: 923 (47)

1
口口口口 |----|
口口口口 |----|
口口口口 |----|
口口口口 |----|
2
口口口口 |①---|
口口口口
口①―<
口口口口

口口口口
―②口 |--②-|
口②口口
口口口口

口③―<
口口③口
口口口口 |----|
口口口口 |③---|
3
口①口口 |--①-|
口口口口 |----|
口口口口
口>―①

②口口口
口③口口
④口口口 |②-③-|
口⑤口② |④-⑤-|
4
口口口口 |①---|
口>―①
口口口口
口口口口

口口口口
口口口② |--②-|
口②―<
口口口口

口口口口
口口口口
口③口口 |----|
口口③口 |--③-|
5
①口口② |①-②-|
口③④口 |③-④-|
⑤口口⑥ |⑤-⑥-|
口⑦⑧口 |⑦-⑧-|
6
口①③② |①---|
①口②③ |----|
口①口② |--②-|
口③口口 |--③-|
7
口口口口 |----|
口口口口 |----|
口口口口 |--①-|
①口口口

口口口②
口口口口
口口口口
口口口口 |②-③-|

口③―<
―③口
口③―<
―③口
8
口口口口 |----|
口口口口 |----|
口口口口 |----|
口口口口 |----|
9
口口口口 |----|
口口口口 |----|
口口口口 |----|
口口口口 |----|
10
口①口口 |①---|
口口①口
口①口口
口口①口

②―<口
口口口口 |②---|
口口口口
口口口口

③口口口
口>―③
口口口口 |--③-|
口口口口 |----|
11
口口口口 |①---|
口口口①
口口口口
①―<口

口口口口
口口口口 |--②-|
口>―②
②口口口

口∨口口
口|口口
口|口③ |----|
口③口口 |③---|
12
口口②① |①-②-|
口口④③ |③-④-|
口口⑧⑦ |⑤-⑥-|
口口⑥⑤ |⑦-⑧-|
13
口口口口 |①---|
①②③⑤ |②---|
④口口口 |③-④-|
⑥口口口 |⑤-⑥-|
14
口①①口 |①---|
口口口口
口口口口
口①口口

③――<
口口口口 |②-③-|
口②②口
口口口口

④口口口
口口口口
――④ |--④-|
口口口口 |----|
15
口口口口 |①---|
口口口口
口口口①
①――<

口口口口
――② |--②-|
口口口口
②口口口

③――<
口口口③
口口口口 |----|
口口口口 |③---|
16
口口口口 |①---|
口②②口 |----|
口①①口 |②---|
口口口口 |----|
17
①⑬⑬口 |①②③④|
⑫⑪⑩⑨ |⑤⑥⑦⑧|
④③②① |⑨⑩⑪⑫|
⑧⑦⑥⑤ |⑬---|
18
②口口① |①---|
④口口③ |②---|
②④③① |③---|
口③④口 |④---|
19
③②①④ |①---|
④①②③ |②---|
②④③① |③---|
口口口口 |④---|
20
③口口④ |①---|
口①②口 |②---|
②④③① |③---|
②③④① |④---|
21
⑤①①口 |①---|
③口口② |②-③-|
口口④⑤ |--④-|
②④口③ |--⑤-|
22
口口口① |----|
口③②① |①---|
①②③口 |②---|
①③②口 |③---|
23
③①②④ |①---|
①⑤⑥② |②---|
③口口④ |③-④-|
②⑤⑥① |⑤-⑥-|
24
口②②口 |①---|
口口口口 |--②-|
口①①口 |----|
③口口③ |③---|
25
⑨⑩⑪⑫ |①②③④|
①②③④ |⑤⑥⑦⑧|
⑤⑥⑦⑧ |⑨⑩⑪⑫|
⑬⑭⑮⑯ |⑬⑭⑮⑯|
26
口口⑤④ |①---|
①①③③ |②-③-|
②②④⑤ |--④-|
口口口口 |--⑤-|
27
口口口③ |--①-|
①②③口 |--②-|
④④⑤口 |--③-|
②①口⑤ |④-⑤-|
28
①①③口 |①---|
⑤④口③ |②-③-|
口⑤口口 |--④-|
④②②口 |--⑤-|
29
②①③① |①---|
⑤④④③ |②---|
②⑤②① |③--④|
口口口口 |--⑤-|
30
③②②① |①---|
口口口④ |----|
③口口① |②-③-|
口②②④ |--④-|
31
口口口口 |--①-|
②①口⑤ |--②-|
口②口④ |--③-|
①口③口 |④-⑤-|
32
⑦⑥⑤④ |①-②③|
口③②口 |④⑤⑥⑦|
①口口口
口口口口

口口口口
口口口口
⑮⑭⑬⑫ |⑧⑨⑩⑪|
⑪⑩⑨⑧ |⑫⑬⑭⑮|
33
⑧⑦⑥⑤ |①②③④|
④③②① |⑤⑥⑦⑧|
⑭口口⑬ |⑨⑩⑪⑫|
⑫⑪⑩⑨ |⑬-⑭-|
34
③②①口 |----|
口①②口 |---①|
口①②口 |---②|
③口口口 |--③-|
35
口④口① |①-②-|
②口④③ |--③-|
②⑥⑤③ |--④-|
口⑤⑥① |⑤-⑥-|
36
①④①④ |①---|
口③⑥口 |②-③-|
③口口⑥ |--④-|
口⑤口② |⑤-⑥-|
37
②④②口 |①---|
①②口口 |----|
④口③口 |②--③|
①③④③ |--④-|
38
④口③① |①---|
①③④① |②---|
口④口③ |③--④|
②⑤口⑤ |--⑤-|
39
⑥④④② |①--②|
①口⑤① |--③-|
③⑥②⑤ |-④--|
②口③口 |⑤-⑥-|
40
⑧⑧⑥③ |①-②-|
②④口⑥ |③-④-|
⑦口③口 |⑤-⑥-|
④①⑤① |⑦-⑧-|
41
口口口③ |①-②-|
③⑤口口 |③-④-|
口②④④ |--⑤-|
⑤②⑥① |--⑥-|
42
―①口 |①---|
口>―① |----|
口口口口 |----|
口口口口 |----|
43
口口口口 |①---|
口口口口 |----|
口口口口 |----|
①①口口 |----|
44
口口口口 |①---|
②②口口 |----|
①①口口 |②---|
口口口口 |----|
45
①③口口 |①--②|
⑤④⑤口 |--③-|
④②口口 |④---|
口口口口 |⑤---|
46
③③①口 |①---|
⑦⑧口① |②---|
口⑥⑤④ |③-④⑤|
①①口② |⑥-⑦⑧|
47
口口⑥⑤ |①-②③|
口口①口 |④-⑤⑥|
口口口口
②③④口

口⑦口口
口⑪⑫口
⑩⑨⑧口 |⑦-⑧⑨|
口口口口 |⑩-⑪⑫|
48
⑦⑥⑤口 |①-②③|
⑪⑫口① |④-⑤⑥|
口⑩⑨⑧ |⑦-⑧⑨|
口②③④ |⑩-⑪⑫|
49
口口⑥⑤ |①-②③|
口口①口 |④-⑤⑥|
口口口口
②③④口

口⑦口口
口⑪⑫口
⑩⑨⑧口 |⑦-⑧⑨|
口口口口 |⑩-⑪⑫|
50
②⑤⑤口 |①-②-|
口口口① |③-④-|
⑥口⑧⑦ |⑤---|
④口口③ |⑥-⑦⑧|
51
口口口口 |①-②③|
②③④口 |④-⑤⑥|
口①口口
⑤⑥口口

口⑩⑨⑧
口口口口
口⑫⑪口 |⑦-⑧⑨|
口口⑦口 |⑩-⑪⑫|
52
口⑤④口 |①---|
③口口② |②-③-|
①口口口 |--④-|
③④⑤② |--⑤-|
53
①口∨口 |--①-|
口②|口 |②-③-|
口口③口
口口口口

口口口口
口口④口
口口④口 |--④-|
⑤口口口 |--⑤-|
54
口>―① |①---|
口口口口
口口口口
口口口口

口③口②
③口④口 |②---|
口④口⑤ |③--④|
口口⑤口 |--⑤-|
55
①口①口 |----|
口⑤⑥口 |①---|
口③④口 |②---|
口口口② |③④⑤⑥|
56
④①③③ |①---|
④口⑤⑤ |--②-|
口口口② |③--④|
口口口口 |--⑤-|
57
⑨⑤⑥④ |--①-|
口口口口 |-②③-|
口③②口 |④-⑤⑥|
①⑦⑧口 |-⑦⑧⑨|
58
口口口口 |①---|
口>―①
口口口口
口口口口

口④⑤口
③④⑤② |②---|
③口口口 |③--④|
口口口口 |--⑤-|
59
③口口④ |-①--|
⑥⑦口④ |②-③-|
口③⑤⑤ |④--⑤|
①①②② |--⑥⑦|
60
④④口⑤ |①---②-|
口口①⑤ |--③---|
②口口⑦ |④---⑤-|
②⑥③③ |--⑥-⑦-|
61
口⑨⑩口 |①-②-③-|
⑦③④⑧ |④-⑤-⑥-|
口①②口 |⑦-⑧-⑨-|
⑤⑪⑫⑥ |⑩-⑪-⑫-|
62
①口口① |①---|
口口口口 |----|
口口口口 |----|
口口口口 |----|
63
①―<口 |①---|
口口口口
口口口口
口口口口

②口口口
口口口口 |--②-|
口>―②
口口口口

口口口口
口∨口口
口|口③ |----|
口③口口 |③---|
64
口口①口 |①---|
口口|口
口口∧口
口①口口

口口②口
②―<口 |--②-|
口口口口
口口口口

口>―③
③口口口
口口口口 |--③-|
口口口口

口口口④
口口口口
口④―<
口口口口 |--④-|
65
口口口口 |----|
口口①口 |--①-|
口①|口
口口∧口

②―<口
口口②口
口口口口 |----|
口口口口 |②---|
66
①口口∨ |①---|
口口口| |----|
口口口|
口口口①

口②口口
②口口口
③④口口 |②--③|
④③口② |--④-|
67
③口③口 |①---|
口①①口 |②-③-|
口口口②
口口②口

口口口口
――⑤
口口口口 |----|
口④口口 |④-⑤-|
68
口①―< |----|
口口口① |--①-|
口口口口
口口口口

口②口口
口④―<
口口③口 |--②-|
口口口② |③-④-|
69
――① |----|
口①口口 |--①-|
口口口口
口口口口

口∨口②
口|口口
口|口口 |----|
口②口口 |②---|
70
口口口口 |----|
口口口口 |----|
―①口 |①---|
口①口口 |----|
71
①口口口 |①---|
口③②口 |--②-|
口①①口 |----|
③口口② |③---|
72
口②①③ |①---|
②口口口 |--②-|
口口③① |----|
口口口口 |③---|
73
口④③口 |①---|
④①①③ |②-③-|
②口⑤口 |--④-|
口①①⑤ |--⑤-|
74
④口口④ |--①-|
口③②口 |--②-|
口①口口 |③---|
①②③口 |④---|
75
口①③口 |①--②|
①⑤⑤口 |--③-|
口②④③ |-④--|
②⑤⑤④ |⑤---|
76
②①③④ |①--②|
口⑤⑥口 |--③-|
①②④③ |-④--|
口⑦⑧口 |⑤⑥⑦⑧|
77
②②④④ |①--②|
①⑤⑥③ |--③-|
⑤口口⑥ |-④--|
①口口③ |⑤-⑥-|
78
∨∨④④ |①---|
④④∧∧ |②---|
口②①口 |③---|
③①②③ |④---|
79
口口①① |----|
①①口口 |----|
口口口口 |--①-|
口口口口 |----|
80
⑨⑩⑪⑫ |①②③④|
⑬⑭⑮⑯ |⑤⑥⑦⑧|
⑤⑥⑦⑧ |⑨⑩⑪⑫|
①②③④ |⑬⑭⑮⑯|
81
⑥⑧⑦口 |①-②③|
口⑦⑧口 |④-⑤-|
④口⑤⑥ |-⑥--|
①⑤③② |⑦-⑧-|
82
口⑨⑩④ |--①②|
③⑦⑧口 |③-④-|
③⑤⑥口 |--⑤⑥|
口口②① |⑦⑧⑨⑩|
83
①口⑧⑥ |①-②③|
⑤⑦口⑧ |④-⑤-|
⑦口口⑥ |⑥--⑦|
④口③② |--⑧-|
84
②③⑥口 |①--②|
③口②⑥ |--③-|
⑤①①④ |④--⑤|
口⑤④口 |--⑥-|
85
③⑤口⑤ |①---|
⑥②②口 |②-③-|
口②②④ |④⑤--|
①口⑦① |⑥-⑦-|
86
③口口④ |①---|
⑦②②⑧ |②-③-|
①②②口 |--④-|
①⑤⑥口 |⑤⑥⑦⑧|
87
⑥③③⑥ |①--②|
口④⑤口 |--③-|
①④⑤② |④--⑤|
①口口② |--⑥-|
88
口④③口 |①---|
①③④② |②---|
①③④② |③---|
口①②口 |④---|
89
口⑩⑪③ |①---|
口⑧⑨口 |②-③-|
口⑥⑦② |④⑤⑥⑦|
①④⑤口 |⑧⑨⑩⑪|
90
口口口③ |①---|
口口口② |②-③-|
①口口口
口口口口

口口口口
口口口口
⑪⑩⑨⑧ |④⑤⑥⑦|
⑦⑥⑤④ |⑧⑨⑩⑪|
91
③口口⑤ |①---|
②口①④ |②-③-|
口⑥口⑦ |④--⑤|
口口⑦④ |-⑥⑦-|
92
⑥②⑤⑦ |①--②|
②④③⑤ |--③④|
⑥口③口 |⑤--⑥|
①⑦口口 |--⑦-|
93
口④口口 |①-②-|
③口④⑤ |③-④-|
⑦①口⑧ |⑤-⑥-|
③口②⑥ |⑦-⑧-|
94
⑨⑦⑧⑩ |①②③④|
⑪⑤⑥⑫ |⑤⑥⑦⑧|
⑬③④⑭ |⑨⑩⑪⑫|
⑮①②⑯ |⑬⑭⑮⑯|
95
⑤④③⑥ |①--②|
⑤②④⑥ |--③-|
⑤③②⑥ |-④--|
口①①口 |⑤-⑥-|
96
口④③口 |①---|
口②口口 |②---|
口口②口 |③---|
①③①④ |④---|
97
①――< |①---|
口口口口 |----|
①――< |----|
口口口口 |----|
98
口口口口 |----|
口③②① |----|
口口口口 |----|
口口口口 |----①②③-|
99
口口口① |----|
口口口口 |--①-|
口口口口 |----|
口口口② |②---|
100
口口口口 |--①-|
口口③② |----|
口口①口 |②---|
口口口口 |③---|
101
①②口口 |①---|
口口口口 |--②-|
①口口③ |----|
口口口① |③---|
102
③口口② |①---|
①口口④ |②---|
口口口口 |③---|
口口口口 |④---|
103
⑮⑦⑧⑯ |①②③④|
⑬⑤⑥⑭ |⑤⑥⑦⑧|
⑪③④⑫ |⑨⑩⑪⑫|
⑨①②⑩ |⑬⑭⑮⑯|
104
⑮⑦⑧⑯ |①②③④|
⑬⑤⑥⑭ |⑤⑥⑦⑧|
⑪③④⑫ |⑨⑩⑪⑫|
⑨①②⑩ |⑬⑭⑮⑯|
最終更新:2022年04月07日 17:12