XENOViA
BlackY
EXTREME
Level: 10.9
BPM: 208
Notes: 1149 (69)
1
口口口口 |----|
口口口口 |----|
口口口口 |----|
口口口口 |----|
2
口口口口 |①---|
口口口口
口口口口
①<口口
口口口口
口>②口 |--②-|
口口口口
②口口口
③<口口
口口③口
口口口口 |----|
口口口口 |③---|
3
①口口口 |--①-|
口口口口 |----|
>①口口
口口口口
 
口口口③
口口④口
口②口⑤ |②-③-|
口口口② |④-⑤-|
4
口口口口 |①---|
①<口口
口口口口
口口口口
口口口口
②口口口 |--②-|
口口口口
②<口口
口口口口
口口口口
>③口口 |----|
③口口口 |--③-|
5
口口口① |①-②③|
口②③④ |④⑤⑥⑦|
口口口口
口⑤⑥⑦
 
口⑫⑪⑮
⑧口口口
⑩⑧⑬⑨ |⑧⑨⑩⑪|
⑭口口口 |⑫⑬⑭⑮|
6
①口口口 |①---|
口口口口 |②---|
口口口口
>②口口
 
口口口口
口③<口
口口④④ |--③-|
口③③③ |--④-|
7
口口>① |①---|
口①口口
口口口口
口口口口
②<口②
口口口口 |--②-|
口口口口
口口口口
③口口口
口口口口
口口口口 |--③-|
口口③③
口口口口
口口④④
⑤口口口
⑤――< |④-⑤-|
8
口②①⑤ |①-②-|
口⑥口口 |③-④-|
⑧④③口 |⑤-⑥-|
口口口⑦ |⑦-⑧-|
9
口④③口 |①-②-|
⑧⑦⑥⑤ |③-④-|
⑫⑪⑩⑨ |⑤⑥⑦⑧|
口②①口 |⑨⑩⑪⑫|
10
②――< |①---|
口口口口 |②---|
口口口口
①口口①
③口∨口
口口|口
口口|口 |--③-|
口口③口 |----|
11
口口口口 |①-②-|
②口口②
①――<
口口①口
口口口∨
口口口| |--③-|
③口口|
口口口③
口口口口
口⑤⑤口
口口口④ |④---|
④口口⑤ |⑤---|
12
⑫①①⑥ |①-②③|
口口⑬⑦ |④⑤⑥⑦|
⑧④②⑩ |⑧⑨⑩⑪|
⑨⑤③⑪ |⑫-⑬-|
13
口③②口 |①-②-|
①口口口 |③-④-|
口口④口
口口口口
⑪口口⑥
⑫⑤口⑦
⑬口口⑧ |⑤---⑥⑦⑧⑨|
⑭口⑩⑨ |⑩---⑪⑫⑬⑭|
14
口②②口 |①---|
口口②口 |②-③-|
口②口口
口①口口
口口口口
口④口口
口|④口 |--④-|
口∧口口 |----|
15
口口口口 |①-②-|
口①口口
②口口②
>―①口
 
③―<口
口口④④ |--③-|
口口口口 |④---|
口口③口
⑤⑤口∨
⑤口口|
口口口|
口口口⑤ |⑤---|
16
口口口口 |①---|
⑤①④口 |②-③-|
口④①口 |④---|
②口口③ |⑤---|
17
①②③④ |①②③④|
⑫⑬⑬⑤ |⑤⑥⑦⑧|
⑪⑬⑬⑥ |⑨⑩⑪⑫|
⑩⑨⑧⑦ |⑬---|
18
①①口② |①---|
⑧口⑩③ |②-③④|
⑦口口⑨ |⑤-⑥⑦|
⑥⑤④口 |⑧-⑨⑩|
19
口①⑥⑪ |①-②③|
口②口⑤ |④-⑤⑥|
口⑦③⑫ |⑦-⑧⑨|
⑧⑨⑩④ |⑩-⑪⑫|
20
②④⑪口 |①-②③|
①⑧⑥⑤ |④-⑤⑥|
③⑦⑨口 |⑦-⑧⑨|
口⑫口⑩ |⑩-⑪⑫|
21
⑦②口① |①---|
①⑥④③ |②-③-|
③④⑤① |--④-|
①口②⑦ |⑤⑥⑦-|
22
口①①③ |----|
口口⑤③ |①---|
②口口口 |②---|
②①①④ |③-④⑤|
23
②口⑨⑩ |①-②③|
①③⑩⑨ |④-⑤⑥|
⑦⑧⑥⑤ |⑦-⑧-|
⑧⑦④口 |⑨-⑩-|
24
②①口口 |①---|
①口口③ |--②-|
③口口② |----|
口口②② |③---|
25
⑪⑬⑥④ |①②③④|
⑤①⑫⑯ |⑤⑥⑦⑧|
⑮⑨②⑧ |⑨⑩⑪⑫|
⑦③⑩⑭ |⑬⑭⑮⑯|
26
⑦口②② |①---|
③①⑤⑦ |②-③-|
口⑤①③ |④-⑤-|
口②④⑥ |⑥-⑦-|
27
口②⑥④ |①-②-|
口⑦口口 |③-④-|
④⑧②口 |⑤-⑥-|
①③⑤⑦ |⑦-⑧-|
28
④④⑥口 |①-②-|
①⑧①② |③-④-|
口口③③ |⑤-⑥-|
①③⑤⑦ |⑦-⑧-|
29
⑥⑤⑦① |①-②-|
③⑦⑤③ |③-④-|
②⑤⑦③ |⑤--⑥|
①④口⑥ |--⑦-|
30
⑤②⑤① |①---|
③口②② |----|
②②口⑤ |②-③-|
①口②④ |④-⑤-|
31
口⑥口② |①-②-|
口④口口 |③-④-|
口⑦⑥⑧ |⑤-⑥-|
①③⑤⑦ |⑦-⑧-|
32
③⑫⑮④ |①-②③|
⑩⑦⑥② |④⑤⑥⑦|
⑨⑭⑪口 |⑧⑨⑩⑪|
①⑤⑧⑬ |⑫⑬⑭⑮|
33
③⑬⑭⑥ |①②③④|
⑪⑦⑧④ |⑤⑥⑦⑧|
⑨⑭⑫② |⑨⑩⑪⑫|
①⑤⑩口 |⑬-⑭-|
34
口②口③ |----|
口①②口 |---①|
①③口② |---②|
口口口① |--③-|
35
②⑥⑥口 |①-②-|
①④⑦① |③-④-|
口⑧②⑧ |⑤-⑥-|
①③⑤⑦ |⑦-⑧-|
36
⑧⑥⑥④ |①-②-|
②⑤口② |③-④-|
①口③⑧ |⑤-⑥-|
①③⑤⑦ |⑦-⑧-|
37
口口口⑥ |①-②-|
③④②⑤ |--③-|
⑤②③口 |④--⑤|
①口④⑥ |--⑥-|
38
①⑥④口 |①-②-|
⑧口②⑦ |③-④-|
口⑦⑧口 |⑤-⑥⑦|
①③⑤口 |--⑧-|
39
①口⑤② |①--②|
口③④口 |--③-|
②口⑥① |-④--|
口③④口 |⑤-⑥-|
40
②⑦⑫⑥ |①---②③④⑤|
③⑧⑬⑪ |⑥---|
④⑨⑭⑯ |⑦⑧⑨⑩⑪---|
⑤⑩⑮① |⑫⑬⑭⑮⑯---|
41
口口口② |--①-|
口口口口 |②-③-|
①口口口
口>―③
口口口口
④―<口
口口口口 |--④-|
口口口④
口口口口
⑤口口口
口口口口
口口⑤口 |--⑤-|
42
①――< |①---|
口口口口 |----|
口口口口 |----|
口口口口 |----|
43
口口口口 |①---|
口口口口 |----|
口口口① |----|
>――① |----|
44
口口口口 |①---|
口②②口 |----|
口①①口 |②---|
口口口① |----|
45
口⑧⑧④ |①--②|
口口口⑤ |--③-|
①②③⑥ |④⑤⑥⑦|
①②③⑦ |⑧---|
46
①口口口 |①-②-|
口口①口
①――<
口口口口
 
>――④
口③口口 |③---|
②③口口 |④-⑤⑥|
口口口口
 
口口⑥⑤
口口口⑤
口口口口
口口口口
口口口∨
口口口|
口口口|
口口口⑦ |⑦-⑧⑨|
口口口口
口口口口
口口口⑨
口口⑧⑧
47
口口口口 |①-②③|
口口口口
口口口口
①――<
口口口口
口口口口
②口口口
②③口口
④口口口
|口口口 |④-⑤⑥|
|口口口
∧口口口
⑤⑤口口
⑥口口口
>―⑦口 |⑦-⑧⑨|
口口口口
 
口∨⑨口
口|口⑧
口⑩⑧口
口口口口 |⑩-⑪⑫|
口口口口
口口口口
口⑪口⑫
口口⑪口
48
口口口口 |①-②③|
口①―<
口口口口
口口口口
口口口口
口②④口 |④-⑤⑥|
②口|口
口③∧口
口⑤口⑦
⑥口⑤|
口口口| |⑦-⑧⑨|
口口口∧
口口⑨⑧
口口口⑧
口口口口
>――⑩ |⑩-⑪⑫|
 
口口口口
口口口口
口口口⑫
口口⑪⑪
49
∨口口口 |①-②③|
|口口口
|口口口
①口口口
④――<
口口口口 |④-⑤⑥|
②口口口
②③口口
⑤⑤口口
⑥口口口
>―⑦口 |⑦-⑧⑨|
口口口口
 
口∨⑨口
口|口⑧
口⑩⑧口
口口口口 |⑩-⑪⑫|
口口口口
口口口口
口⑪口⑫
口口⑪口
50
口口口③ |①-②-|
口④②口 |③-④-|
口口口口
口口口①
⑤――<
口口口口
口口口口 |⑤-⑥⑦|
口口口口
⑥⑦口口
⑥口口口
口口口口
口口口口
∨口口口
|口口口
|口口口
⑧口口口 |⑧-⑨⑩|
口口口口
口口口口
⑩口口口
⑨⑨口口
51
口口口口 |①-②③|
口口口口
口口口口
>――①
 
口口口口
口口口口
口口口②
口口③②
口口口④
口口口| |④-⑤⑥|
口口口|
口口口∧
口口⑤⑤
口口口⑥
口⑦―< |⑦-⑧⑨|
口口口口
口⑨∨口
⑧口|口
口⑧⑩口
口口口口 |⑩-⑪⑫|
口口口口
口口口口
⑫口⑪口
口⑪口口
52
①④⑤③ |①---|
④②②⑤ |②-③-|
⑤④⑤④ |--④-|
①口口③ |--⑤-|
53
①口口口 |--①-|
口②③口 |②-③-|
口口口口
>――③
 
口口⑤口
口口口口
口口口口 |--④-|
④⑤口④ |--⑤-|
54
口①∨口 |①---|
口||口
口||口
口∧①口
口②口口
⑥⑤③口 |②---|
④⑥⑤③ |③-④⑤|
口口②口 |--⑥-|
55
③口④口 |①②③-|
口口口② |④---|
口口口口
①口口④
口⑤口⑤
口⑦⑤口
口口口⑧ |⑤---|
⑨口⑥口 |⑥⑦⑧⑨|
56
⑦⑥⑤口 |①--②|
④口口① |③-④-|
④②③口 |⑤--⑥|
口⑦⑥⑤ |--⑦-|
57
口口口④ |--①-|
②③⑧⑦ |-②③-|
口①⑥⑤ |④-⑤⑥|
①⑨⑨⑨ |-⑦⑧⑨|
58
口①―< |①---|
口口口口
口口口口
口口口口
③②②口
④⑤口口 |②---|
⑤④口口 |③--④|
③口口口 |--⑤-|
59
口④口① |-①--|
⑤⑥②③ |②-③-|
⑦⑤③② |④--⑤|
口④口① |--⑥⑦|
60
②口①③ |①---②-|
⑥口④⑤ |--③---|
口⑥口④ |④---⑤-|
②⑤①③ |--⑥---|
61
口口口口 |①-②-|
口①―<
口口口口
口口口口
口口口口
口②口口 |③-④-|
>―③口
口口口口
 
⑤⑥⑦⑧
⑯口口⑨
⑮口④⑩ |⑤⑥⑦⑧⑨⑩|
⑭⑬⑫⑪ |⑪⑫⑬⑭⑮⑯|
62
口口口口 |①---|
口口①口 |----|
口①口口 |----|
口口口口 |----|
63
①―<口 |①-②-|
口口口口
口口口口
口口②①
④∨口④
口|口口 |③-④-|
口④口口
口③口口
口⑥⑤口
>―⑦口
口⑦口口 |⑤-⑥-|
口口口口 |⑦---|
64
口口口口 |①-②-|
口口①口
口口口口
口口口口
 
口口∨口
口口|口
②口①口
①口口口
口口口口
③>―④ |③-④-|
口口④口
口口口④
口口⑥口
口口|⑥
口口∧口 |⑤-⑥-|
口⑥⑤口
口口⑧口
口⑦口口
口口口口
口口口口 |⑦-⑧-|
口>-⑧
口口口口
口口口口
口口口口
65
口口∨④ |①-②-|
③口|口 |③-④-|
②口④④
①口口口
口⑥口口
口口⑤口
口口口口 |⑤-⑥-|
口口口口
口口口口
口⑦―<
口口⑦口
口口口口 |⑦---|
66
口口口口 |①-②-|
口①口口
口口口口
口口口口
口∨口口
口|口口 |③---|
口①口口
口③②①
④口口口
⑥口⑤⑤
⑤④⑥⑥ |④--⑤|
④口口口 |--⑥-|
67
口②②① |①---|
口③口口 |②-③-|
口口口口
口②②①
口口口口
口>―⑤
口口口口 |----|
④口口口 |④-⑤-|
68
口口①口 |----|
口口|① |--①-|
口口∧口
口口口口
口口②口
口口口口
②口口口 |--②-|
口口口口
④―<口
口③口口
口口口口
口口口口 |③-④-|
69
③>―③ |--①-|
③口①口 |②-③-|
口②口口
口口口口
口口口⑥
口口口口
口口④口 |④-⑤-|
⑤⑥口⑦ |⑥-⑦-|
70
⑥①⑦口 |①-②③|
口⑧⑤⑨ |④-⑤-|
⑩④⑪② |⑥⑦⑧⑨|
口⑫③⑬ |⑩⑪⑫⑬|
71
③①口① |①---|
①口③口 |--②-|
口②口② |----|
②口③口 |③---|
72
④口②口 |①---|
②③⑤① |--②-|
②口④口 |--③-|
口①口① |④-⑤-|
73
口③④① |①---|
口⑤口⑤ |②-③-|
③②口④ |--④-|
⑤③④① |--⑤-|
74
②⑦⑦口 |--①-|
①口①口 |--②-|
③④⑤⑥ |③④⑤⑥|
口②口① |⑦---|
75
口口⑤④ |①--②|
③①③② |--③-|
口⑥口口 |-④--|
①④②④ |⑤-⑥-|
76
④①口⑥ |①--②|
⑦③⑤② |--③-|
①口②③ |④⑤--|
④⑨④⑧ |⑥⑦⑧⑨|
77
口①①⑥ |①--②|
⑤③④② |--③-|
③⑤②⑥ |-④--|
口口④⑥ |⑤-⑥-|
78
①①口口 |①---|
口③口口 |②-③-|
③口②口
①③口口
>―⑤口
口口口④
口口口口 |④---|
口口口口 |⑤---|
79
口口口口 |----|
口口口口 |----|
口口口口 |----|
口口口口 |----|
80
⑦口①⑧ |①②③④|
⑤口口⑥ |⑤⑥⑦⑧|
③口口④
①口口②
 
口⑨⑯口
口⑮⑩口
口⑪⑭口 |⑨⑩⑪⑫|
口⑬⑫口 |⑬⑭⑮⑯|
81
⑥⑦⑧⑤ |①-②③|
④⑧⑦⑤ |④-⑤-|
⑥口口② |-⑥--|
①⑧⑦③ |⑦-⑧-|
82
⑤口⑫口 |--①②|
⑨⑪⑧④ |③-④-|
⑦①②③ |⑤⑥⑦⑧|
③口⑩⑥ |⑨⑩⑪⑫|
83
⑥①口④ |①-②③|
⑨口⑩⑦ |④-⑤-|
⑨②⑧⑤ |⑥-⑦⑧|
⑥③口⑩ |⑨-⑩-|
84
⑥①①④ |①-②③|
⑪②⑫⑦ |-④⑤-|
口⑤⑧⑤ |⑥-⑦⑧|
⑨③③⑩ |⑨⑩⑪⑫|
85
⑥①②② |①---|
口⑨口⑤ |②-③-|
①③⑧④ |④⑤-⑥|
口②②⑦ |⑦⑧⑨-|
86
口⑤⑦④ |①-②③|
②口④⑪ |④-⑤-|
③⑩口⑨ |⑥-⑦-|
①⑧⑥口 |⑧⑨⑩⑪|
87
①③⑤⑥ |①--②|
⑤①④口 |-③--|
④口②口 |④--⑤|
③⑥⑦② |-⑥-⑦|
88
①⑦⑧⑪ |①-②③|
⑩①⑨② |④-⑤⑥|
⑦④⑥⑤ |⑦-⑧⑨|
④⑩⑪③ |⑩-⑪-|
89
②③⑨口 |----|
⑧②⑥② |①-②-|
④①⑦⑤ |③④⑤⑥|
①口口① |⑦⑧⑨-|
90
⑨口口⑧ |①---|
⑦⑥⑤④ |②-③-|
口②口口 |----④⑤⑥⑦|
⑪①③⑩ |⑧⑨⑩⑪|
91
⑩④①⑧ |①-②③|
⑦⑩⑧⑨ |④-⑤-|
⑥⑥③① |⑥-⑦⑧|
口②⑤口 |-⑨⑩-|
92
⑨②①⑦ |①--②|
⑦⑧⑥口 |--③④|
⑤④⑨③ |⑤-⑥⑦|
①③⑤② |-⑧⑨-|
93
口⑤③⑪ |①-②-|
⑧口⑦① |③-④-|
⑩④口⑤ |⑤⑥-⑦|
②⑥⑨③ |⑧⑨⑩⑪|
94
③⑨⑥⑯ |①②③④|
⑬①⑫④ |⑤⑥⑦⑧|
⑮⑦②⑩ |⑨⑩⑪⑫|
⑤⑪⑭⑧ |⑬⑭⑮⑯|
95
②口④口 |①-②③|
口①口③ |-④⑤-|
口⑤①口
③口口⑤
口⑥口⑪
⑨⑫⑧口
⑩口口⑦ |⑥⑦-⑧|
口⑦⑨口 |⑨⑩⑪⑫|
96
③⑥⑥⑪ |①-②-|
⑧口口③ |③-④⑤|
⑩④①⑦ |⑥-⑦⑧|
②⑨⑨⑤ |⑨-⑩⑪|
97
口口∨口 |①---|
口①|口 |----|
口|①口 |----|
口∧口口 |----|
98
①②③④ |----|
口口口口 |----|
口口口口 |----|
口口口口 |---①②③④-|
99
口口口口 |----|
口口②① |--①-|
口口口口 |----|
口口口口 |②---|
100
口口口③ |--①-|
口口口口 |----|
①②口口 |②---|
口口口口 |③---|
101
口口②口 |①---|
口①口口 |--②-|
口③①口 |----|
①口口口 |③---|
102
④口口口 |①---|
口口口③ |②---|
②口口口 |③---|
口口口① |④---|
103
⑯⑫⑨⑤ |①②③④|
④⑧①⑬ |⑤⑥⑦⑧|
⑭②⑦⑪ |⑨⑩⑪⑫|
⑥⑩⑮③ |⑬⑭⑮⑯|
104
⑯⑫⑨⑤ |①②③④|
④⑧①⑬ |⑤⑥⑦⑧|
⑭②⑦⑪ |⑨⑩⑪⑫|
⑥⑩⑮③ |⑬⑭⑮⑯|
最終更新:2022年04月20日 18:32