アットウィキロゴ
嘆きの樹 (BEMANI SYMPHONY Arr.)
金獅子 × Nagiha & Osamu Kubota + gaQdan

EXTREME

Level: 9.7
BPM: 61-156
Notes: 834 (87)

BPM: 156
1
口口口口 |----|
口口口口 |----|
口口口口 |----|
口口口口 |----|
2
口口口口 |①-②-|
口口口口 |--③-|
口⑥③口 |④-⑤-|
①②⑤④ |--⑥-|
3
口口口口 |①-②-|
口③⑥口 |--③-|
④⑤②① |④-⑤-|
口口口口 |--⑥-|
4
口口口口 |①-②-|
口③⑥口 |--③-|
④⑤②① |④-⑤-|
口口口口 |--⑥-|
5
口⑥③口 |①-②-|
①②⑤④ |--③-|
口口口口 |④-⑤-|
口口口口 |--⑥-|
6
口⑥③口 |①-②-|
①②⑤④ |--③-|
口口口口 |④-⑤-|
口口口口 |--⑥-|
7
③口②① |①-②-|
④⑤⑥⑦ |--③-|
口口口口 |④-⑤-|
口口口口 |⑥-⑦-|
8
口①①口 |--①-|
②|口口 |②-③-|
口|口③
口∧口口

口口口口
口口∨口
口口|口 |④---|
口④④口

口⑤口口
口口口口
口口口口
口口⑤口 |⑤---|
9
①口口① |①---|
②口①② |②---|
口②口口
口口口口

口⑤口⑤
口口口口
③口口口 |③---|
④③③口 |④-⑤-|
10
①口④⑥ |①---|
②⑥口④ |②-③-|
④口口口 |④---|
⑤③口⑤ |⑤-⑥-|
11
①⑥③口 |①-②③|
口口口⑦ |④⑤⑥⑦|
④口⑤口
口②口口

⑭口口口
⑫口⑮口
口⑩口⑬ |⑧⑨⑩⑪|
⑧口⑨⑪ |⑫⑬⑭⑮|
12
口②口① |①②③④|
⑧口口③ |⑤⑥⑦⑧|
口口⑤口
⑥④⑦口

⑫口口⑫
口⑪⑪口
口⑩口口 |⑨⑩⑪-|
口口口⑨ |--⑫-|
13
口①口口 |----|
口口口口 |①-②-|
①口②③ |③-④-|
④④③② |----|
14
⑤⑤①④ |①-②-|
③②⑥① |③-④-|
②③④口 |----|
口口口⑥ |⑤-⑥-|
15
口口③⑥ |①-②-|
②⑤口① |----|
②④⑥③ |③-④-|
④⑤①口 |⑤-⑥-|
16
⑬⑤⑩⑭ |①②③④|
①⑨⑥② |⑤⑥⑦⑧|
③⑦⑯⑧ |⑨⑩⑪⑫|
⑪⑮④⑫ |⑬⑭⑮⑯|
17
口①―< |①---|
①―<口
①―<口
口口口口

口②口口
②③口口 |②-③-|
②口口口
口口口口

口口口口
口>―④
口>―④ |④---|
―④口

口口口口
口口口⑤
口口⑥⑤
口口⑤口 |⑤-⑥-|
18
口口口口 |①---|
①―<口
①―<口
口①―<

口口口口
②口口口 |②-③-|
②③口口
口②口口

―④口
口>―④
口>―④ |④---|
口口口口

口口⑤口
口口⑥⑤
口口口⑤
口口口口 |⑤-⑥-|
19
①①<< |①---|
①―<口
口口口口
口口口口

②②口口
②口口口 |②-③-|
口③口口
口口口口

口口口口
口口口口
口>―④ |④---|
④④

口口口口
口口⑥口
口口口⑤
口口⑤⑤ |⑤-⑥-|
20
口①―< |①---|
口①―<
①―<口
口口口口

口②口口
口②口口 |②-③-|
②口口口
口③口口

口口口口
口>―④
―④口 |④---|
―④口

口口⑥口
口口口⑤
口口⑤口
口口⑤口 |⑤-⑥-|
21
口①口口 |①---|
①|①口
|∧|口
∧口∧口

口②口口
②③②口 |②-③-|
口口口口
口口口口

口∨口∨
口|∨|
口④|④ |④---|
口口④口

口口口口
口口口口
口⑤⑥⑤
口口⑤口 |⑤-⑥-|
22
口①①口 |①---|
①||口
|∧∧口
∧口口口

口②②口
②口③口 |②-③-|
口口口口
口口口口

口口口∨
口∨∨|
口||④ |④---|
口④④口

口口口口
口口口口
口⑥口⑤
口⑤⑤口 |⑤-⑥-|
23
口①①口 |①---|
口①|口
口∧∧口
口∧口口

口②②口
口②口口 |②-③-|
口口口口
口口口③

口口∨口
口∨∨口
口|④口 |④---|
口④④口

⑥口口口
口口口口
口口⑤口
口⑤⑤口 |⑤-⑥-|
24
口口口口 |①---|
①①
口>―①
口口口口

口口口口
口口②② |②-③-|
口口口②
③口口口

口口口口
④―<口
④④<< |④---|
口口口口

口口口⑥
⑤口口口
⑤⑤口口
口口口口 |⑤-⑥-|
25
①口口口 |①-②-|
口①口② |--③-|
口口③口
口口②③

口口⑥⑤
④口口⑥
口④口⑤ |④-⑤-|
口口口口 |--⑥-|
26
口口口口 |①-②-|
口①②口 |--③-|
口③口口
③①②口

口⑤⑥口
⑥口口⑤
口口④口 |④-⑤-|
口⑦⑦④ |⑥-⑦-|
27
②③口① |①-②-|
口①口口 |--③-|
③②口①
口口口口

⑥口口口
⑤⑥④口
口口口口 |④-⑤-|
口⑤口④ |--⑥-|
28
口口口口 |①-②-|
③口口口 |--③-|
②②口①
③口①口

⑥口口⑤
口⑤⑥④
口口口口 |④-⑤-|
口⑦⑦④ |⑥-⑦-|
29
口①②口 |①-②-|
口③口口 |--③-|
①口②①
③口口口

口口⑥口
⑤口④④
口⑥口口 |④-⑤-|
口⑤口口 |--⑥-|
30
①③口① |①--②|
③②口③ |--③-|
口口①口
②口口②

⑤口口⑤
口口⑤口
④⑥口④ |-④--|
⑥口④⑥ |⑤--⑥|
31
口①①③ |--①-|
①⑥③口 |-②--|
④④⑤② |③-④-|
⑥②②⑤ |⑤-⑥-|
32
①①< |①---|
①><① |----|
口口口口 |----|
口口口口 |----|
33
口①①口 |----|
①口口① |----|
口口口口 |①---|
口口口口 |----|

口口口口 |----|
口口口口
口口口口
口口口口
34
口口口口 |①---|
口口口口
口①口口
口∧口口

口口③<
口口口口 |--②-|
口②口口 |③---|
口口口口

口口④口
口口口口
口口口口
口口口口 |--④-|
35
口∨口口 |①---|
口①口口
口口口口
口口口口

口口口口
口②口口 |--②-|
口口口口 |③---|
③口口

口口口口
口口口口
口口口口
口④口口 |--④-|
36
口口口口 |①---|
口口口口
口口①口
口口∧口

口③<口
口口口口 |--②-|
口口②口 |③---|
口口口口

口④口口
口口口口
口口口口
口口口口 |--④-|
37
口口∨口 |①---|
口口①口
口口∨口
口口①口

口口口口
口口②口 |--②-|
口口④口 |③---|
口③②口 |④---|
38
口①口口 |①---|
口口③② |----|
⑤④口口 |②-③-|
口口口口 |④-⑤-|
39
口口③② |①---|
⑤④口口 |----|
口口口口 |②-③-|
口口①口 |④-⑤-|
40
口③③口 |①---|
口口口口 |----|
②②口① |②---|
口口口口 |③---|
41
口口口口 |①---|
口口①① |----|
口口口口 |----|
口口口口 |----|
42
口口口口 |①---|
口①口口
口口①口
①口∧口

③口>③
口口口口 |--②-|
③口②口 |③---|
口口口口

口口口④
口口口口
口口口口
口口口口 |--④-|
43
口口口口 |①---|
①口①<
口口口口
口①口口

口③口口
口口②口 |--②-|
口③∨口 |③---|
口口③口

口口口口
口口口口
口口口口
口口④口 |--④-|
44
口口口口 |①---|
口口口口
口口口①
①①口∧

口口③<
口口口口 |--②-|
③③口② |③---|
口口口口

口口④口
口口口口
口口口口
口口口口 |--④-|
45
口①口口 |①---|
口①>①
口口口口
口口口口

③口口口
③口口② |--②-|
口口口∨ |③---|
口口口③

口口口口
口口口口
口口口口
口口口④ |--④-|
46
口①①口 |①---|
口口|口
口口|口
口口∧口

③口②④
⑤③④⑥ |--②-|
口口⑥口 |③-④-|
口⑤口口 |⑤-⑥-|
47
口口口口 |①---|
口口口口 |----|
口①口口
口口①口

③口口②
⑤③②口
口口口④ |②-③-|
口⑤④口 |④-⑤-|
48
⑧口口⑧ |①②③-|
口⑦⑥⑤ |④---|
①②③口 |⑤⑥⑦-|
④口口④ |⑧---|
49
口口口口 |①---|
①口口④ |②-③-④-|
口③①②
①口口口

口口口口
⑨⑤口口
口口⑧口 |⑤-⑥-|
⑦口口⑥ |⑦-⑧-⑨-|
50
口口①口 |①---②-|
⑨⑥⑥⑤ |③-④-⑤-|
口④⑧③ |⑥-⑦-|
⑦②口⑦ |⑧-⑨-|
51
①口①③ |①---|
口②⑥口 |----|
⑤口②口 |②-③-|
③口④口 |④-⑤-⑥-|

BPM: 158
52
②④④④ |①---②-|
①③口① |--③---|
口②④② |④---|
③①口③ |----|

BPM: 152
53
⑨⑧⑦⑥ |①②③④|
①②③④ |⑤-⑥⑦|
⑤口⑩口 |⑧⑨⑩-|
⑭⑬⑫⑪ |⑪⑫⑬⑭|
54
⑥⑦⑧⑨ |①②③④|
④③②① |⑤-⑥⑦|
口⑩口⑤ |⑧⑨⑩-|
⑪⑫⑬⑭ |⑪⑫⑬⑭|
55
⑨⑧⑦⑥ |①②③④|
①②③④ |⑤-⑥⑦|
⑤口⑩口 |⑧⑨⑩-|
⑭⑬⑫⑪ |⑪⑫⑬⑭|
56
口口口⑤ |①②③④|
④③②① |⑤-⑥⑦|
⑥⑦口口
口口口口

口口口口
⑭⑬⑫⑪
口口⑧⑨ |⑧⑨⑩-|
⑩口口口 |⑪⑫⑬⑭|
57
①③⑤口 |①②③④|
口口口⑦ |⑤-⑥⑦|
②④口口
口口口⑥

口口口口
⑪⑬⑨口
⑫⑭口口 |⑧⑨⑩-|
口⑩⑧口 |⑪⑫⑬⑭|
58
口⑤③① |①②③④|
⑦口口口 |⑤-⑥⑦|
口口④②
⑥口口口

口口口口
口⑨⑬⑪
口口⑭⑫ |⑧⑨⑩-|
口⑧⑩口 |⑪⑫⑬⑭|
59
①③⑤口 |①②③④|
口口口⑦ |⑤-⑥⑦|
②④口口
口口口⑥

口口口口
⑪⑬⑨口
⑫⑭口口 |⑧⑨⑩-|
口⑩⑧口 |⑪⑫⑬⑭|
60
口⑤③① |①②③④|
⑦口口口 |⑤-⑥⑦|
口口④②
⑥口口口

口口口口
口⑨⑬⑪
口口⑭⑫ |⑧⑨⑩-|
口⑧⑩口 |⑪⑫⑬⑭|
61
⑤⑨⑦⑪ |--①②|
①③口口 |③④--|
②④口口 |⑤⑥⑦⑧|
⑥⑩⑧⑫ |⑨⑩⑪⑫|
62
④⑧⑫⑯ |①②③④|
②⑥⑩⑭ |⑤⑥⑦⑧|
①③⑦⑪ |⑨⑩⑪⑫|
⑤⑨⑬⑮ |⑬⑭⑮⑯|
63
④⑧∨口 |①②③④|
⑥②|口 |⑤⑥⑦⑧|
③⑦|口 |⑨---|
①⑤⑨口

口口口口
口口口口
口口口口
口口⑩口 |--⑩-|
64
口口口① |①---|
口口口| |----|
口口口|
口口口∧

口口口②
口口口口
口口口口 |--②-|
口口口口

口③―<
口口口口
口口口口
口口口口 |③---|
65
∨①口口 |①---|
|口口口 |(148)----|
|口口口 |(138)----|
①口口口 |(108.5)----|

BPM: 64
口口口口 |②---|
口口口口
口口口口
②口口口

BPM: 132.1
66
口口口口 |①--②|
口∨∨口
口||口
口①①口

口③③口
②②②② |----|
口④口③ |③---|
④②②④ |④---|

BPM: 121
67
①口口① |①---|
口①①口 |----|
口口口口 |----|
口口口口 |----|

BPM: 156
68
②口③口 |----|
口口口口 |----|
⑧④⑤① |①②③④|
⑥口口⑦ |⑤⑥⑦⑧|
69
⑧⑦⑥⑤ |①②③④|
①②③④ |⑤⑥⑦⑧|
口口口口
口口口口

口口口口
⑬⑭⑮⑯
⑫⑪⑩⑨ |⑨⑩⑪⑫|
口口口口 |⑬⑭⑮⑯|
70
⑫⑪⑩⑨ |①②③④|
⑬⑭⑮⑯ |⑤⑥⑦⑧|
⑧⑦⑥⑤ |⑨⑩⑪⑫|
①②③④ |⑬⑭⑮⑯|
71
⑧⑦⑥⑤ |①②③④|
口口口口 |⑤⑥⑦⑧|
口口口口
①②③④

口口口口
口口口口
⑫⑪⑩⑨ |⑨⑩⑪⑫|
⑬⑭⑮⑯ |⑬⑭⑮⑯|
72
口口口口 |①②③④|
①②③④ |⑤⑥⑦⑧|
⑧⑦⑥⑤
口口口口

⑫⑪⑩⑨
⑬⑭⑮⑯
口口口口 |⑨⑩⑪⑫|
口口口口 |⑬⑭⑮⑯|
73
⑫⑪⑩⑨ |①②③④|
⑬⑭⑮⑯ |⑤⑥⑦⑧|
⑧⑦⑥⑤ |⑨⑩⑪⑫|
①②③④ |⑬⑭⑮⑯|
74
③口口② |①--②|
口口口口 |--③-|
口③②①
①②①③

口④口口
⑤⑥④⑥
④口口⑤ |-④--|
⑤口⑥口 |⑤--⑥|
75
口②①① |--①-|
口口②口 |-②--|
②①口口
口口口口

口口口口
⑥④口⑤
口⑥③口 |③-④-|
④口⑤③ |⑤-⑥-|

BPM: 150
76
①①①① |①---|
|||| |----|
||||
∧∧∧∧

②②②②
口口口口
口口口口 |----|
口口口口 |②---|
77
口口口口 |①-②-|
④口①③ |③-④-|
①②口④
④口口①

⑤口口口
口⑥⑥口
口口口口 |--⑤-|
口口口⑥ |⑥---|
78
口口口口 |①---|
口口口口
口①①口
口①①口

口②②口
②><② |②---|
②><② |----|
口∧∧口 |----|
79
口口口口 |----|
口口口口 |----|
口口口口 |----|
口口口口 |----|
80
口口口口 |----|
口口口口 |----|
口口口口 |----|
口口口口 |----|
81
口①①口 |①---|
①口口① |----|
①口口①
口口口口
最終更新:2022年04月07日 17:16