アットウィキロゴ
POSSESSION (BEMANI SYMPHONY Arr.)
TAG underground × 中村 康隆 + gaQdan

BASIC

Level: 6
BPM: 180
Notes: 406

1
口口口口 |----|
口口口口 |----|
口口口口 |----|
口口口口 |----|
2
口②②口 |①---|
口③③口 |②---|
口口口口 |--③-|
①口口口 |----|
3
口口口口 |①---|
口口口③ |--②-|
口①①口 |--③-|
口②②④ |--④-|
4
①③③口 |----|
①口口口 |①---|
口口口口 |②---|
②口口口 |③---|
5
口口口口 |--①-|
口①①口 |----|
⑤④③② |②-③-|
口口口口 |④-⑤-|
6
口②②口 |①---|
口③③口 |②---|
口口口口 |--③-|
口口口① |----|
7
口口口口 |①---|
③口口口 |--②-|
口①①口 |--③-|
④②②口 |--④-|
8
口③③① |----|
口口口① |①---|
口口口口 |②---|
口口口② |③---|
9
口口口口 |--①-|
口①①口 |----|
②③④⑤ |②-③-|
口口口口 |④-⑤-|
10
口口口口 |①---|
口口口口 |----|
口②口口 |②---|
口①①口 |----|
11
口②口口 |①---|
口口①口 |----|
口口口口 |②---|
口口口口 |----|
12
口口口口 |①---|
④③②① |②---|
口口口口 |③---|
口口口口 |④---|
13
口口口口 |①---|
口口口口 |②---|
①②③④ |③---|
口口口口 |④---|
14
口口口口 |①-②-|
口③④⑤ |③---|
口②口口 |④---|
口①口口 |⑤---|
15
口口口口 |①---|
口口口口 |②---|
④③②① |③---|
口口口口 |④---|
16
口口口口 |①-②-|
口②④口 |--③-|
口⑤口口 |④---|
①口口③ |⑤---|
17
口口口① |①---|
口口口② |②---|
口口口③ |③---|
口口口④ |④---|
18
口②口④ |①---|
①口③口 |②---|
口口口口 |③---|
口口口口 |④---|
19
口口口口 |①---|
口①口口 |②---|
⑥⑤④③ |③-④-|
②口口口 |⑤-⑥-|
20
口口口口 |①---|
口口②口 |②---|
④口口口 |③---|
口③口① |④---|
21
口①口口 |①---|
③④⑤⑥ |②---|
口口②口 |③-④-|
口口口口 |⑤-⑥-|
22
口口口口 |①---|
口口口口 |②---|
口②④口 |③---|
①口口③ |④---|
23
口口口口 |①---|
口口口口 |②---|
②口口④ |③---|
口①③口 |④---|
24
口①①口 |①---|
口②②口 |②---|
口③③口 |③---|
口④④口 |④---|
25
口口口口 |①---|
①口口① |----|
口口口口 |②---|
②口口② |----|
26
口口口口 |①---|
口口口口 |②---|
①②④③ |③---|
口口口口 |④---|
27
口口口口 |①---|
①②④③ |②---|
口口口口 |③---|
口口口口 |④---|
28
口口口口 |①---|
口口口口 |②---|
口②④口 |③---|
①口口③ |④---|
29
口口口口 |①---|
①口口③ |②---|
②口口④ |③---|
口口口口 |④---|
30
口口口口 |①---|
②口口④ |②---|
口口口口 |③---|
口①③口 |④---|
31
口①③口 |①---|
口口口口 |②---|
口②④口 |③---|
口口口口 |④---|
32
口口口口 |①---|
口口口口 |②---|
②口口④ |③---|
①口口③ |④---|
33
口口口口 |①---|
①②③④ |②---|
口口口口 |③---|
口口口口 |④---|
34
口口口口 |①---|
口②②口 |----|
口①①口 |②---|
口口口口 |----|
35
口①②③ |①---②-|
口④⑤⑥ |--③---|
口口口口 |④---⑤-|
口口口口 |--⑥---|
36
口口口口 |①---②-|
口口口口 |--③---|
口①②③ |④---⑤-|
口④⑤⑥ |--⑥---|
37
③②①口 |①---②-|
⑥⑤④口 |--③---|
口口口口 |④---⑤-|
口口口口 |--⑥---|
38
口口口口 |①---②-|
口口口口 |--③---|
③②①口 |④---⑤-|
⑥⑤④口 |--⑥---|
39
④口口① |①---②-|
⑤口口② |--③---|
⑥口口③ |④---⑤-|
口口口口 |--⑥---|
40
口④①口 |①---②-|
口⑤②口 |--③---|
口⑥③口 |④---⑤-|
口口口口 |--⑥---|
41
口口口口 |①---②-|
④口口① |--③---|
⑤口口② |④---⑤-|
⑥口口③ |--⑥---|
42
口④④口 |①---②-|
口③③口 |--③---|
口②②口 |④---|
口①①口 |----|
43
口口口口 |①---|
口口口② |----|
①口②口 |②---|
口①口口 |----|
44
口①口口 |①---|
①口②口 |----|
口口口② |②---|
口口口口 |----|
45
口口口口 |①---|
口②口口 |----|
口口①② |②---|
①口口口 |----|
46
口②①口 |①---|
①口口② |----|
口口口口 |②---|
口口口口 |----|
47
①口口② |①---|
口③④口 |②---|
口口口口 |③---|
口口口口 |④---|
48
口口口口 |①---|
口口口口 |②---|
口①②口 |③---|
③口口④ |④---|
49
①②③口 |①-②-|
④⑤⑥口 |③-④-|
⑦⑧口口 |⑤-⑥-|
口口口口 |⑦-⑧-|
50
口口口口 |①---|
口口口口 |----|
口口①口 |②---|
口②②口 |----|
51
口口口④ |①---|
口口口③ |②---|
口口口② |③---|
口口口① |④---|
52
口④口口 |①---|
口③口口 |②---|
口②口口 |③---|
口①口口 |④---|
53
口口①口 |①---|
口口②口 |②---|
口口③口 |③---|
口口④口 |④---|
54
①口口口 |①---|
②口口口 |②---|
③口口口 |③---|
④口口口 |④---|
55
口①①口 |①---|
口①①口 |----|
口口口口 |----|
口口口口 |----|
56
口口口口 |----|
口口口口 |----|
口口口口 |----|
口口口口 |----|
57
③③②② |①---|
口口口口 |②---|
口口口口 |--③-|
①口口① |----|
58
口③③口 |①---|
②②①① |--②-|
④口口④ |--③-|
口口口口 |--④-|
59
③③口口 |----|
口①①口 |①---|
口①①口 |②---|
口口口② |③---|
60
口口①① |--①-|
口口口口 |----|
②③④⑤ |②-③-|
口口口口 |④-⑤-|
61
②②③③ |①---|
口口口口 |②---|
口口口口 |--③-|
①口口① |----|
62
口③③口 |①---|
①①②② |--②-|
④口口④ |--③-|
口口口口 |--④-|
63
口口③③ |----|
口①①口 |①---|
口①①口 |②---|
②口口口 |③---|
64
①①口口 |--①-|
⑤④③② |----|
口口口口 |②-③-|
口口口口 |④-⑤-|
65
口口口口 |①---②-|
⑥口口③ |--③---|
⑤口口② |④---⑤-|
④口口① |--⑥---|
66
口④①口 |①---②-|
口⑤②口 |--③---|
口⑥③口 |④---⑤-|
口口口口 |--⑥---|
67
口口口口 |①---②-|
口口口口 |--③---|
④⑤⑥口 |④---⑤-|
口③②① |--⑥---|
68
④⑤⑥口 |①---②-|
口③②① |--③---|
口口口口 |④---⑤-|
口口口口 |--⑥---|
69
口口口口 |①---②-|
口③口④ |--③---|
口②⑤口 |④---⑤-|
①口⑥口 |--⑥---|
70
口②口④ |①---②-|
①③⑤口 |--③---|
口口⑥口 |④---⑤-|
口口口口 |--⑥---|
71
口口口口 |①---②-|
③口⑥④ |--③---|
口②口⑤ |④---⑤-|
①口口口 |--⑥---|
72
口④④口 |①---②-|
口③口口 |--③---|
口口②口 |④---|
口①口口 |----|
73
口口口口 |①---②-|
口③②④ |--③---|
口⑥口口 |④---⑤-|
口口⑤① |--⑥---|
74
口口②④ |①---②-|
③口口口 |--③---|
⑥口⑤① |④---⑤-|
口口口口 |--⑥---|
75
口口口口 |①---②-|
口③②④ |--③---|
口⑥口口 |④---⑤-|
口口⑤① |--⑥---|
76
口口②⑤ |①---②-|
⑥口口口 |--③---|
③口④① |④---⑤-|
口口口口 |--⑥---|
77
口口口口 |①---②-|
⑥③②④ |--③---|
口口口① |④---⑤-|
口⑤口口 |--⑥---|
78
口口口口 |①---②-|
口④②口 |--③---|
①⑤口口 |④---⑤-|
⑥口口③ |--⑥---|
79
口口口口 |①---②-|
②⑥③④ |--③---|
口口口口 |④---⑤-|
口⑤①口 |--⑥---|
80
④④④④ |①---②-|
口口③口 |--③---|
口②口口 |④---|
口口①口 |----|
81
口口口口 |----|
口口口口 |----|
口口口口 |----|
口口口口 |----|

accuracy: 100%
最終更新:2022年05月25日 14:14