アットウィキロゴ
POSSESSION (BEMANI SYMPHONY Arr.)
TAG underground × 中村 康隆 + gaQdan

ADVANCED

Level: 8
BPM: 180
Notes: 632

1
口口口口 |----|
口口口口 |----|
口口口口 |----|
口口口口 |----|
2
①②口口 |①-②-|
④⑤口口 |③-④-|
⑦⑧口⑥ |⑤-⑥-|
口口口③ |⑦-⑧-|
3
⑤口口④ |①-②-|
⑦口口① |③-④-|
口口口⑧ |⑤-⑥-|
②③口⑥ |⑦-⑧-|
4
口口口④ |----|
口口①口 |①---|
⑤口①口 |②-③-|
②③口口 |④-⑤-|
5
口口⑧口 |①-②-|
③④⑦② |③-④-|
口①⑥口 |⑤-⑥-|
口口⑤口 |⑦-⑧-|
6
口口口③ |①-②-|
⑦⑧口⑥ |③-④-|
④⑤口口 |⑤-⑥-|
①②口口 |⑦-⑧-|
7
②③口⑥ |①-②-|
口口口⑧ |③-④-|
⑦口口① |⑤-⑥-|
⑤口口④ |⑦-⑧-|
8
②③口口 |----|
⑤口①口 |①---|
口口①口 |②-③-|
口口口④ |④-⑤-|
9
口口⑤口 |①-②-|
口①⑥口 |③-④-|
③④⑦② |⑤-⑥-|
口口⑧口 |⑦-⑧-|
10
口口口口 |①---|
口②②口 |----|
口口口口 |②---|
①口口① |----|
11
②③④⑤ |①---|
口口口口 |----|
①口口① |②-③-|
口口口口 |④-⑤-|
12
口口口口 |①---|
②口口② |②---|
口③③口 |③---|
④①①④ |④---|
13
口②②口 |①---|
口③③口 |②---|
①口口① |③---|
口④④口 |④---|
14
④口④口 |①-②-|
③口⑤③ |③---|
口②②口 |④---|
①⑤口① |⑤---|
15
③口口② |①---|
口口口口 |②---|
③①②④ |③---|
①口④口 |④---|
16
口口④④ |①-②-|
②②⑤口 |--③-|
口⑤③口 |④---|
口①口口 |⑤---|
17
④口口④ |①---|
③口口③ |②---|
②口口② |③---|
①口口① |④---|
18
口⑤⑤口 |--①-|
口②④口 |②---|
口口口口 |③-④-|
口③①口 |--⑤-|
19
③口口口 |--①-|
口①口④ |②---|
⑤口口口 |③-④-|
口口②⑥ |⑤-⑥-|
20
口口④口 |--①-|
口②口口 |②---|
口⑤⑤③ |③-④-|
①口口口 |--⑤-|
21
口口口⑥ |--①-|
⑤口口① |②---|
口口口④ |③-④-|
③②口口 |⑤-⑥-|
22
口①②口 |①-②-|
口③④口 |③-④-|
口⑤⑥口 |⑤-⑥-|
口⑦⑧口 |⑦-⑧-|
23
⑦口口⑧ |①-②-|
⑤口口⑥ |③-④-|
③口口④ |⑤-⑥-|
①口口② |⑦-⑧-|
24
口口口口 |①-②-|
口口口口 |③-④-|
⑦③②⑥ |⑤-⑥-|
⑤①④⑧ |⑦-⑧-|
25
⑤⑥⑦⑧ |①-②-|
口①④口 |③-④-|
口③②口 |⑤-⑥-|
口口口口 |⑦-⑧-|
26
口口口口 |--①-|
口①口④ |--②-|
③口口口 |--③-|
口口②口 |--④-|
27
③口口口 |--①-|
口④口口 |--②-|
口口①口 |--③-|
口②口口 |--④-|
28
口口口③ |--①-|
口口④口 |--②-|
口口口② |--③-|
口口①口 |--④-|
29
口口⑤口 |--①-|
口④口口 |--②-|
口①③口 |--③-|
②口口口 |④-⑤-|
30
口①口口 |①-②-|
④口②⑤ |--③-|
口口口口 |--④-|
口③口口 |--⑤-|
31
口口口口 |--①-|
口②口口 |--②-|
口④①口 |--③-|
口口③口 |--④-|
32
口口①④ |--①-|
②口口口 |--②-|
口口口口 |--③-|
口③口口 |--④-|
33
口④口口 |--①-|
口①口口 |--②-|
口口口③ |--③-|
②口口口 |--④-|
34
口口口口 |①---|
口②②口 |----|
口①①口 |②---|
口口口口 |----|
34
⑥⑥口口 |①---②-|
④④口③ |--③---|
⑤⑤②口 |④---⑤-|
口口口① |--⑥---|
35
口口口口 |①---②-|
④④②口 |--③---|
⑤⑤口① |④---⑤-|
⑥⑥③口 |--⑥---|
36
③②口口 |①---②-|
口口口口 |--③---|
口口①口
口口口口

口口口口
口口④④
口口⑥⑥ |④---⑤-|
口口⑤⑤ |--⑥---|
37
口口⑥⑥ |①---②-|
②口⑤⑤ |--③---|
口①口口 |④---⑤-|
③口④④ |--⑥---|
38
③③口口 |①---②-|
②②⑥⑥ |--③---|
①①④④ |④---⑤-|
口口⑤⑤ |--⑥---|
39
口口④④ |①---②-|
②②⑤⑤ |--③---|
①①⑥⑥ |④---⑤-|
③③口口 |--⑥---|
40
②③④④ |①---②-|
②③口口 |--③---|
①①⑥⑤ |④---⑤-|
口口⑥⑤ |--⑥---|
41
①②③④ |①---②-|
①②③④ |--③---|
口口口口 |④---|
口口口口 |----|
43
口口④口 |①-②-|
口③⑥口 |③-④-|
⑤⑦②口 |⑤-⑥-|
口①⑧口 |⑦-⑧-|
44
口⑦④口 |①-②-|
口⑤口② |③-④-|
口口⑥⑧ |⑤-⑥-|
①③口口 |⑦-⑧-|
45
口口④口 |①-②-|
③⑤⑧口 |③-④-|
①口口口 |⑤-⑥-|
口⑦②⑥ |⑦-⑧-|
46
⑤①⑧口 |①-②-|
③⑦口④ |③-④-|
口口口② |⑤-⑥-|
口口⑥口 |⑦-⑧-|
47
口⑧口③ |①-②-|
⑦口口⑥ |③-④-|
⑤②口口 |⑤-⑥-|
①④口口 |⑦-⑧-|
48
③口口口 |①-②-|
口②口口 |③-④-|
口口口①
口口口④

口口口口
口口口口
⑤⑥⑦⑧ |⑤-⑥-|
口口口口 |⑦-⑧-|
49
口⑧口口 |①-②-|
⑤②⑥③ |③-④-|
⑦口口口 |⑤-⑥-|
①④口口 |⑦-⑧-|
50
口⑥①① |①---|
口口⑤口 |--②③|
口④③② |④----⑤--|
口口口口 |---⑥----|
51
口⑧⑦口 |①-②-|
④口口③ |③-④-|
口⑥⑤口 |⑤-⑥-|
②口口① |⑦-⑧-|
52
口口口口 |①-②-|
口⑧⑦口 |③-④-|
④口口③ |⑤-⑥-|
⑥②①⑤ |⑦-⑧-|
53
口⑧⑦口 |①-②-|
④口口③ |③-④-|
⑥②①⑤ |⑤-⑥-|
口口口口 |⑦-⑧-|
54
口口口口 |①-②-|
⑥口口⑤ |③-④-|
⑧④③⑦ |⑤-⑥-|
口②①口 |⑦-⑧-|
55
口口①口 |①---|
口口口口 |----|
口口口口 |----|
口口口口 |----|
56
口口口口 |----|
口口口口 |----|
口口口口 |----|
口口口口 |----|
57
口口⑥③ |①-②-|
口口口口 |③-④-|
②⑤⑧口 |⑤-⑥-|
①④⑦口 |⑦-⑧-|
58
④①⑧⑥ |①-②-|
口口口口 |③-④-|
口口口③ |⑤-⑥-|
⑤⑦口② |⑦-⑧-|
59
④口口口 |----|
口①①口 |①---|
口口口③ |②-③-|
口口⑤② |④-⑤-|
60
口②口口 |①-②-|
⑧⑦⑥⑤ |③-④-|
口④①口 |⑤-⑥-|
口③口口 |⑦-⑧-|
61
③⑥口口 |①-②-|
口口口口 |③-④-|
口⑧⑤② |⑤-⑥-|
口⑦④① |⑦-⑧-|
62
⑥⑧①④ |①-②-|
口口口口 |③-④-|
③口口口 |⑤-⑥-|
②口⑦⑤ |⑦-⑧-|
63
口口口④ |----|
口①①口 |①---|
③口口口 |②-③-|
②⑤口口 |④-⑤-|
64
口口②口 |①-②-|
⑤⑥⑦⑧ |③-④-|
口①④口 |⑤-⑥-|
口口③口 |⑦-⑧-|
64
口口口口 |①---②-|
③口⑥⑥ |--③---|
口②④④ |④---⑤-|
①口⑤⑤ |--⑥---|
65
口口④④ |①---②-|
口②⑤⑤ |--③---|
①口⑥⑥ |④---⑤-|
口③口口 |--⑥---|
66
口②口③ |①---②-|
口口口口 |--③---|
①口口口
口口口口

口口口口
④④口口
⑥⑥口口 |④---⑤-|
⑤⑤口口 |--⑥---|
67
⑥⑥口口 |①---②-|
⑤⑤口② |--③---|
口口①口 |④---⑤-|
④④口③ |--⑥---|
68
⑥口口③ |①---②-|
④⑥③② |--③---|
⑤④②① |④---⑤-|
口⑤①口 |--⑥---|
69
口④②口 |①---②-|
④⑤③② |--③---|
⑤⑥①③ |④---⑤-|
⑥口口① |--⑥---|
70
④④②③ |①---②-|
⑤⑥口口 |--③---|
口口③② |④---⑤-|
⑥⑤①① |--⑥---|
71
④④④④ |①---②-|
口口③③ |--③---|
②②口口 |④---|
口口①① |----|
72
④⑤⑥口 |①---②-|
口③口口 |--③---|
④⑤⑥② |④---⑤-|
①②①③ |--⑥---|
73
口⑥⑤④ |①---②-|
①口②口 |--③---|
③⑥⑤④ |④---⑤-|
②口①③ |--⑥---|
74
④⑤⑥③ |①---②-|
③②①口 |--③---|
④⑤⑥口 |④---⑤-|
①口口② |--⑥---|
75
口⑥⑤④ |①---②-|
口②①口 |--③---|
口⑥⑤④ |④---⑤-|
③①③② |--⑥---|
76
口口口口 |①---②-|
口③①口 |--③---|
②口口③
口①②口

口口④口
④口⑥口
口⑤口口 |④---⑤-|
口⑥口⑤ |--⑥---|
77
口①口② |①---②-|
口②口口 |--③---|
③口①口
口口③口

口口④口
④口口⑤
口⑤⑥口 |④---⑤-|
⑥口口口 |--⑥---|
78
②④③口 |①---②-|
③①②④ |--③---|
口⑥⑤① |④---⑤-|
⑤口口⑥ |--⑥---|
79
④④④④ |①---②-|
口①①口 |--③---|
③口口③ |④---|
口②②口 |----|
81
口口口口 |①---|
①①①① |----|
口①①口 |----|
口口口口 |----|

accuracy: 100%
最終更新:2022年05月25日 14:54