アットウィキロゴ
Everlasting Message (BEMANI SYMPHONY Arr.)
ぺのれり × Osamu Kubota + gaQdan

EXTREME

Level: 10.1
BPM: 92-214
Notes(hold): 854(23)

1
口口口口 |(211.764)----|
口口口口 |(209.302)----|
口口口口 |(209.302)----|
口口口口
2
口口口口 |(211.764)----|
口口口口 |(209.302)----|
口口口口 |(209.302)----|
口口口口
3
口口口口 |(209.302)----|
口口口口 |(211.764)----|
口口口口 |(209.302)----|
口口口口
4
口口口口 |(209.302)----|
口口口口 |(211.764)----|
口口口口 |(209.302)----|
口口口口
5
②④③② |(209.302)①---|
口②②口 |(209.302)②---|
口①①口 |(211.764)③-④-|
口口口口
6
口口口口 |(209.302)①---|
①口口⑤ |(209.302)②-③-|
口③④口 |(211.764)④-⑤-|
②口口口
7
④⑤口口 |(209.302)①-②-|
口①⑥口 |(209.302)③-④-|
④口口③ |(209.302)⑤-⑥-|
口①②口
8
口⑧⑥口 |(211.764)①-②-|
⑦口口⑤ |(209.302)③-④-|
口④②口 |(209.302)⑤-⑥-|
③口口① |(211.764)⑦-⑧-|
9
②口口② |(209.302)①-②-|
⑩⑨⑧⑦ |(209.302)③④⑤⑥|
⑥⑤④③ |(209.302)⑦⑧⑨⑩|
口①①口
10
口②④⑤ |(211.764)①-②-|
口口口口 |(209.302)③-④-|
口⑦⑥口 |(209.302)⑤-⑥-|
⑧③口① |(211.764)⑦-⑧-|

口口口口 |(209.302)⑨---|
口口口口
⑨口口⑨
口口口口
11
口③⑥口 |(209.302)①-②-|
②口口⑤ |(209.302)③-④-|
口口口口 |(211.764)⑤-⑥-|
口①④口
12
①口口④ |(209.302)①-②-|
口口口口 |(209.302)③-④-|
口②⑤口 |(211.764)⑤-⑥-|
③口口⑥
13
口③④口 |(209.302)①-②-|
口①②口 |(209.302)③-④-|
③口口④
口①②口
14
口口口口 |(199.999)①---|
①口口①
口口口|
口口口∧

口口∨口
口口|② |(199.999)--②-|
口口③口 |(199.999)③---|
口口口口

口口口口
口口口口
口口④口
口口口口 |(199.999)--④-|
15
口口口口 |(199.999)①---|
口口①口
口口|口
口口∧口

口口口③
口口②| |(199.999)--②-|
口口口∧ |(199.999)③---|
口口口口

口口口④
口口口口
口口口口
口口口口 |(199.999)--④-|
16
④③②口 |(199.999)①-②-|
口口口口 |(199.999)③-④-|
――①
口口口口

口口口口
⑤口口口
口口⑦⑦ |(199.999)⑤-⑥-|
⑧⑥口口 |(199.999)⑦-⑧-|
17
口口口口 |(199.999)①---|
口①①口
口口|口
口口∧口

③口口③
口口②| |(199.999)--②-|
口口口∧ |(199.999)③---|
口口口口

口口口④
口口口口
口口口口
口口口口 |(199.999)--④-|
18
口①①口 |(199.999)①---|
口口|口 |(199.999)----|
∨口|口 |(199.999)②---|
②口∧口

口口口口
口口口口
口口口口
③口口口 |(199.999)--③-|
19
口口口口 |(199.999)①---|
口口口口
①口口
口口口口

口口口口
③口口口 |(199.999)--②-|
∧②口口 |(199.999)③---|
口口口口

口口④口
④口口口
口口口口
口口口口 |(199.999)--④-|
20
口①口① |(199.999)①---|
口口口| |(195.652)----|
口口口| |(195.652)----|
口口口∧ |(193.548)----|
21
口口口③ |(191.489)①---|
口②②口 |(189.473)----|
口口口口 |(187.500)②---|
口①①口 |(185.567)③---|
22
①∨①口 |(183.673)①---|
|||口 |(183.673)----|
∧①∧口 |(183.673)----|
口口口口 |(185.567)----|
23
①口①口 |(183.673)①---|
口②口② |(183.673)----|
口①口口 |(183.673)②---|
口口②口 |(183.673)----|
24
口口口① |(185.567)①---|
口③口口 |(183.673)②---|
口③①口 |(183.673)③---|
③②④口 |(183.673)④---|
25
①③③口 |(183.673)①---|
口口口③ |(183.673)②---|
①口②口 |(185.567)③---|
口④④口 |(183.673)④---|
26
①口②① |(183.673)①---|
③①①③ |(183.673)--②-|
②②②③ |(183.673)----|
③口口口 |(185.567)③---|
27
①③口③ |(183.673)--①-|
口①口口 |(183.673)----|
②口②③ |(183.673)②---|
口②①① |(183.673)③---|
28
∨口口口 |(183.673)①-②-③-|
|口②⑥ |(183.673)④-⑤-⑥-|
|③口口
①⑤④口

口口口∨
口⑧口|
口口⑨| |(185.567)⑦-⑧-⑨-|
⑦口口⑦

口⑫口口
口口口口
⑩口口⑪
口口口口 |(183.673)⑩-⑪-⑫-|
29
①口口口 |(183.673)①-②-③-|
|口②口
|③口口
∧口口①

口口口口
⑤口口⑥ |(183.673)④-⑤-⑥-|
口口口口
口口④口

⑦⑫⑪⑦
口⑩口|
口口⑨| |(183.673)⑦-⑧-⑨-|
口⑧口∧ |(185.567)⑩-⑪-⑫-|
30
口口口① |(183.673)①---|
口口口口 |(183.673)----|
口口口口 |(183.673)----|
口口口口 |(183.673)----|
31
口口口口 |(132.352)----|
口口口口 |(131.386)----|
口口口口 |(132.352)----|
口口口口 |(132.352)----|
32
口口①口 |(132.352)①-②-③-|
①②③④ |(131.386)④---|
口口口①
口口口口

口⑤口⑤
⑧口口口
⑤⑥⑦⑧ |(132.352)⑤-⑥-⑦-|
口⑧口口 |(131.386)⑧---|
33
①②③口 |(132.352)①-②-③-|
⑥⑤④① |(132.352)④-⑤-⑥-|
口口口口
口口①口

口口口⑦
口口口口
⑦⑧⑨⑦ |(131.386)⑦-⑧-⑨-|
⑫⑪⑩口 |(132.352)⑩-⑪-⑫-|
34
口①口口 |(131.386)①-②-③-|
①②③④ |(132.352)④---|
口口口口
口口口①

口口⑤口
口⑧口口
⑤⑥⑦⑧ |(132.352)⑤-⑥-⑦-|
⑧⑤口口 |(132.352)⑧---|
35
①②③口 |(131.386)①-②-③-|
⑥⑤④① |(132.352)④-⑤-⑥-|
口口口口
口口①口

口口口⑦
口口口口
⑦⑧⑨⑦ |(131.386)⑦-⑧-⑨-|
⑫⑪⑩口 |(132.352)⑩-⑪-⑫-|
36
①口①口 |(132.352)①-②-③-|
④③②① |(131.386)④---|
口口口口
口口口口

口⑤口口
口口⑧口
⑧⑦⑥⑤ |(132.352)⑤-⑥-⑦-|
口口⑤⑧ |(131.386)⑧---|
37
口口口① |(132.352)①-②-③-|
口①口口 |(132.352)④-⑤-⑥-|
⑥⑤④⑥
①②③口

⑫⑪⑩口
⑦⑧⑨⑦
口口口口 |(132.352)⑦-⑧-⑨-|
口口口口 |(131.386)⑩-⑪-⑫-|
38
口口口① |(132.352)①---②-|
②口③口 |(131.386)--③---|
③口①②
①②口③

④口口口
口口口④
口④口口 |(132.352)④---|
口⑤⑤口 |(132.352)⑤---|
39
口①①口 |(131.386)①---|
③①①③ |(132.352)---②|
②口口② |(131.386)③---|
口口口口 |(132.352)----|
40
口口①① |(132.352)①②③④|
⑧②口口 |(132.352)⑤⑥⑦⑧|
⑥口③⑤
口④⑦口

口⑨⑬口
口⑭⑩口
口⑪⑮口 |(131.386)⑨⑩⑪⑫|
⑯口口⑫ |(132.352)⑬⑭⑮⑯|
41
①口口口 |(131.386)①②③④|
⑤口口② |(132.352)⑤⑥⑦⑧|
③口口⑥
口⑦④⑧

⑫口口口
⑯口⑨⑬
口⑩⑪口 |(132.352)⑨⑩⑪⑫|
⑭口⑮口 |(131.386)⑬⑭⑮⑯|
42
口①①④ |(132.352)①②③④|
口⑤口口 |(131.386)⑤⑥⑦⑧|
③口⑥②
口⑦口⑧

口口口口
⑬口⑨⑭
⑮⑫⑯口 |(132.352)⑨⑩⑪⑫|
⑩口⑪口 |(132.352)⑬⑭⑮⑯|
43
①②口① |(132.352)①②③④|
⑧口③口 |(131.386)⑤⑥⑦⑧|
口口口⑤
⑥④⑦口

口口口口
口⑨⑭⑩
⑬⑪⑯口 |(132.352)⑨⑩⑪⑫|
口⑮口⑫ |(131.386)⑬⑭⑮⑯|
44
口口①① |(132.352)①②③④|
④口口口 |(132.352)⑤⑥⑦⑧|
⑧⑥口③
②口⑤⑦

口口口口
⑭⑨⑩⑬
口⑯⑫⑮ |(131.386)⑨⑩⑪⑫|
口⑪口口 |(132.352)⑬⑭⑮⑯|
45
①口②① |(131.386)①②③④|
口⑤口口 |(132.352)⑤⑥⑦⑧|
③口⑥口
⑦口④⑧

⑭口口⑬
⑫⑯⑨⑮
口口口⑪ |(132.352)⑨⑩⑪⑫|
口⑩口口 |(132.352)⑬⑭⑮⑯|
46
⑬⑩⑮⑯ |(131.386)①②③④|
⑨⑭⑦⑫ |(132.352)⑤⑥⑦⑧|
⑤②⑪⑧ |(131.386)⑨⑩⑪⑫|
①⑥③④ |(132.352)⑬⑭⑮⑯|
47
⑬⑭⑪⑮ |(132.352)①②③④|
⑨⑩③⑦ |(131.386)⑤⑥⑦⑧|
⑤⑥⑯⑫ |(132.352)⑨⑩⑪⑫|
①②⑧④ |(131.386)⑬⑭⑮⑯|
48
口口口口 |(132.352)①---|
③口②③ |(132.352)----|
①②口口 |(132.352)②---|
①①③② |(131.386)③---|
49
①②②① |(132.352)①---|
口①口口 |(131.386)----|
口口口口 |(132.352)②---|
③②②口 |(132.352)---③|
50
口口口② |(131.386)①---|
口口口口 |(132.352)②---|
口口②口
口口口①

口口口口
口口③口
③④口口 |(131.386)③---|
口口口④ |(132.352)④---|
51
②口口② |(132.352)①---|
①②②口 |(132.352)----|
口口口① |(131.386)②---|
口口口口 |(132.352)----|
52
②①①口 |(131.386)①---|
口口口① |(132.352)--②-|
口②②口 |(132.352)----|
口③③③ |(131.386)③---|
53
④①③① |(132.352)①---|
②④④② |(131.386)②---|
①③②③ |(132.352)③---|
口口口口 |(132.352)④---|

口口口口 |(132.352)----|
口口口口
口口口口
口口口口
54
∨①①∨ |(131.386)①---|
|||| |(130.434)----|
①∧∧① |(130.434)----|
口口口口 |(129.496)----|
55
口①①口 |(127.659)①---|
口口口口 |(127.659)----|
①口口① |(125.000)----|
口口口口 |(125.000)----|
56
口口②⑤ |(122.448)①-②③|
口口⑤② |(120.000)④⑤⑥⑦|
①⑥⑦口
③④口口

⑩⑧⑫口
⑧⑩口⑫
口口口口 |(118.421)⑧⑨-⑩|
⑪口口⑨ |(115.384)-⑪⑫-|
57
⑤②⑩⑧ |(111.111)①-②③|
②⑤⑧⑩ |(107.142)④⑤⑥⑦|
⑨⑦⑥① |(100.558)⑧⑨-⑩|
⑪⑪④③ |(091.836)-⑪--|
58
口口口口 |(152.542)----|
口口口口 |(151.260)----|
口口口口 |(152.542)----|
口口口口 |(152.542)----|
59
口①口⑫ |(151.260)①-②-③-|
⑦口⑥② |(152.542)④-⑤-⑥-|
③⑪口⑧ |(151.260)⑦-⑧-⑨-|
⑨⑤⑩④ |(152.542)⑩-⑪-⑫-|
60
①②①口 |(144.000)①---|
②①口② |(139.534)--②-|
①口①口
口口口口

③口口③
口口口口
口③口口 |(144.000)----|
口口口口 |(140.625)③---|
61
口口①口 |(138.461)----|
②口口口 |(140.625)①---|
口②口① |(140.625)②---|
口口③③ |(136.363)③---|
62
口①口③ |(139.534)①---|
口口①口 |(135.338)--②-|
②口①③ |(136.363)----|
②①口口 |(131.386)③---|
63
口①口口 |(131.386)①---|
口口①口 |(131.386)--②-|
②①口③ |(137.404)③---|
②口①③ |(129.496)----|
64
口②②口 |(131.386)①---|
①①①② |(127.659)--②-|
口①口口 |(136.363)----|
口口口口 |(135.338)----|
65
口③口口 |(137.404)①---|
③口口② |(133.333)-----------②------------|
①口口口 |(136.363)----|
口①②口 |(134.328)③---|
66
口口口② |(135.338)①---|
口①①口 |(135.338)----|
口①口口 |(133.333)②---|
口口口② |(130.434)----|
67
口①①口 |(126.760)①---|
①②口① |(136.363)----|
口口②口 |(134.328)②---|
口②口口 |(130.434)----|
68
②②③③ |(136.363)①---|
①口口① |(139.534)--②-|
口口口口 |(136.363)----|
①②③① |(138.461)③---|
69
口口口口 |(139.534)----|
口①口③ |(148.760)①---|
口口口口 |(137.404)②---|
②口口口 |(133.333)③---|
70
①口口① |(130.434)①---|
口①①口 |(129.496)②---|
②口口口
口口口口

口口口口
③④⑤口
口口口口 |(134.328)③--④|
口③④⑤ |(128.571)----------⑤----------|
71
②②②② |(134.328)①---|
口口口口 |(137.404)--②-|
口①①口 |(133.333)----|
口口口口 |(139.534)----|
72
口③②① |(136.363)----|
口口口口 |(127.659)----|
口口口口 |(131.386)①--②|
③②①口 |(131.386)-------③-------|
73
②③③② |(132.352)①---|
口②②口 |(129.496)---------②---------|
③①①③ |(134.328)----|
口口口口 |(133.333)③---|
74
口口口口 |(144.000)①---|
口②口③ |(144.000)--②-|
口口①口 |(144.000)----|
②口③① |(144.000)③---|
75
①口①口 |(144.000)①---|
口④口口 |(144.000)②---|
口口③口 |(144.000)③---|
口②口口 |(144.000)④---|
76
口①①口 |(148.760)①---|
口④口③ |(148.760)②---|
口②③口 |(148.760)③---|
②口④口 |(148.760)④---|
77
口①口① |(150.000)①---|
②口口② |(148.760)----|
②口口② |(148.760)②---|
口①口① |(148.760)----|
78
口口口口 |(153.846)①---|
口①①③ |(152.542)--②-|
②口③口 |(152.542)----|
①②口① |(153.846)③---|
79
口①①口 |(152.542)①---|
④口口⑤ |(153.846)②---|
口③口口 |(152.542)③---|
②口口口 |(152.542)④---⑤-|
80
口口①① |(148.760)①---|
④口口口 |(147.540)----②-|
口③③口 |(147.540)③---|
口②口口 |(148.760)----④-|
81
①①口口 |(147.540)①---|
口③③口 |(147.540)----②-|
口②②口 |(148.760)③---|
口口口口 |(147.540)----|
82
口口口口 |(214.285)----|
口口口口 |(214.285)----|
口口口口 |(214.285)----|
口口口口
83
②④③② |(214.285)①---|
口②②口 |(214.285)②---|
口①①口 |(214.285)③-④-|
口口口口
84
口口口口 |(214.285)①---|
①口口⑤ |(211.764)②-③-|
口③④口 |(214.285)④-⑤-|
②口口口
85
④⑤口口 |(214.285)①-②-|
口①⑥口 |(214.285)③-④-|
④口口③ |(214.285)⑤-⑥-|
口①②口
86
口⑧⑥口 |(214.285)①-②-|
⑦口口⑤ |(214.285)③-④-|
口④②口 |(214.285)⑤-⑥-|
③口口① |(211.764)⑦-⑧-|
87
②口口② |(214.285)①-②-|
⑩⑨⑧⑦ |(214.285)③④⑤⑥|
⑥⑤④③ |(214.285)⑦⑧⑨⑩|
口①①口
88
口②④⑤ |(214.285)①-②-|
口口口口 |(214.285)③-④-|
口⑦⑥口 |(214.285)⑤-⑥-|
⑧③口① |(214.285)⑦-⑧-|

口口口口 |(211.764)⑨---|
口口口口
⑨口口⑨
口口口口
89
⑦③⑥口 |(214.285)①-②-|
②口口⑤ |(214.285)③-④-|
口⑧口口 |(214.285)⑤-⑥-|
口①④口 |(214.285)⑦-⑧-|
90
口口口② |(214.285)①-②-|
⑤⑤⑥⑥ |(214.285)③-④-|
⑤口③⑥ |(214.285)⑤---|
①口口④ |(214.285)⑥---|
91
②④②④ |(214.285)①-②-|
⑥口⑤口 |(211.764)--③-|
⑥口⑤口 |(214.285)④---|
①③①③ |(214.285)⑤-⑥-|
92
②⑥①⑥ |(214.285)--①-|
口⑤口⑤ |(214.285)②---|
口④口④ |(214.285)③-④-|
②③①③ |(214.285)⑤-⑥-|
93
④口④口 |(214.285)①-②-|
②⑤②⑥ |(214.285)--③-|
①⑤①⑥ |(211.764)④---|
③口③口 |(214.285)⑤-⑥-|
94
③①③② |(214.285)--①-|
④口④口 |(214.285)②---|
口口口口 |(214.285)③---|
口①口② |(214.285)④---|
95
⑥⑥④④ |(214.285)①-②-|
⑤⑤口口 |(214.285)--③-|
①②③③ |(211.764)④---|
①②口口 |(214.285)⑤-⑥-|
96
⑥⑥口口 |(214.285)--①-|
⑤⑤②① |(214.285)②---|
④④口口 |(214.285)③-④-|
③③②① |(214.285)⑤-⑥-|
97
口口②② |(214.285)①-②-|
⑥⑥④④ |(214.285)--③-|
⑤⑤①① |(214.285)④---|
口口③③ |(214.285)⑤-⑥-|
98
①②③④ |(211.764)--①-|
口⑦⑥⑤ |(214.285)②-③-|
口⑦⑥⑤ |(202.247)④-⑤-|
①②③④ |(193.548)⑥-⑦-|
最終更新:2022年04月07日 17:18