アットウィキロゴ
茶渋シンドローム
みゅい

BASIC

Level: 2
BPM: 185
Notes: 209

1
口口口口 |----|
口口口口 |----|
口口口口 |----|
口口口口 |----|
2
口口口口 |----|
口口口口 |----|
口口口口 |----|
口口口口 |----|
3
口口口口 |----|
口口口口 |----|
口口口口 |----|
口口口口 |----|
4
口口口口 |----|
口口口口 |----|
口口口口 |----|
口口口口 |----|
5
口口口口 |----|
口口口口 |----|
口口口口 |----|
口口口口 |----|
6
口口口口 |①---|
①②口口 |----|
口口口口 |②---|
口口口口 |----|
7
口口口口 |①---|
口口①② |----|
口口口口 |②---|
口口口口 |----|
8
口口口口 |①---|
口口口口 |----|
口口②① |②---|
口口口口 |----|
9
口口口口 |①---|
口口口口 |----|
②①口口 |②---|
口口口口 |----|
10
口口口口 |①---|
①②口口 |----|
口口口口 |②---|
口口口口 |----|
11
口口口口 |①---|
口口①② |----|
口口口口 |②---|
口口口口 |----|
12
口口口口 |①---|
口口口口 |----|
口口②① |②---|
口口口口 |----|
13
口口口口 |①---|
口口口口 |----|
②①口口 |②---|
口口口口 |----|
14
口口口口 |①---|
口口口口 |----|
口口口口 |----|
口①口口 |----|
15
口口口口 |①---|
口口口口 |----|
口口①口 |----|
口口口口 |----|
16
口口口口 |①---|
口①口口 |----|
口口口口 |----|
口口口口 |----|
17
口口①口 |①---|
口口口口 |----|
口口口口 |----|
口口口口 |----|
18
口①口口 |①---|
口口口口 |----|
口口口口 |----|
口口口口 |----|
19
口口口口 |①---|
口口①口 |----|
口口口口 |----|
口口口口 |----|
20
口口口口 |①---|
口口口口 |----|
口①口口 |----|
口口口口 |----|
21
口口口口 |①---|
口口口口 |----|
口口口口 |----|
口口①口 |----|
22
口口口口 |①---|
口口口口 |----|
口口②① |②---|
口口口口 |----|
23
口口口口 |①---|
口口口口 |----|
②①口口 |②---|
口口口口 |----|
24
口口口口 |①---|
①②口口 |----|
口口口口 |②---|
口口口口 |----|
25
口口口口 |①---|
口口①② |----|
口口口口 |②---|
口口口口 |----|
26
口口口口 |①---|
口口口口 |----|
口口②① |②---|
口口口口 |----|
27
口口口口 |①---|
口口口口 |----|
②①口口 |②---|
口口口口 |----|
28
口口口口 |①---|
①②口口 |----|
口口口口 |②---|
口口口口 |----|
29
口口口口 |①---|
口口①② |----|
口口口口 |②---|
口口口口 |----|
30
口口①口 |①---|
口口口口 |----|
口口口口 |----|
口口口口 |----|
31
口口口口 |①---|
口口①口 |----|
口口口口 |----|
口口口口 |----|
32
口口口口 |①---|
口①口口 |----|
口口口口 |----|
口口口口 |----|
33
口①口口 |①---|
口口口口 |----|
口口口口 |----|
口口口口 |----|
34
口口①口 |①---|
口口口口 |----|
口口口口 |----|
口口口口 |----|
35
口口口口 |①---|
口口①口 |----|
口口口口 |----|
口口口口 |----|
36
①口口① |①---|
②口口② |----|
口口口口 |----|
口口口口 |②---|
37
口口口口 |----|
口口口口 |----|
口口口口 |①---|
口①①口 |----|
38
口口口口 |①---|
口②②口 |----|
口①①口 |②---|
口口口口 |----|
39
口①①口 |①---|
口口口口 |----|
口口口口 |----|
口口口口 |----|
40
①口口口 |①---|
②口口口 |②---|
③口口口 |③---|
④口口口 |④---|
41
口口口口 |①---|
口③口口 |②---|
口口②口 |③---|
口①口口 |----|
42
口口口① |①---|
口口口② |②---|
口口口③ |③---|
口口口④ |④---|
43
口口口口 |①---|
口口③口 |②---|
口②口口 |③---|
口口①口 |----|
44
口①①口 |①---|
口口口口 |----|
口②②口 |②---|
口口口口 |----|
45
①口口① |①---|
口口口口 |----|
②口口② |②---|
口口口口 |----|
46
口①①口 |①---|
口口口口 |----|
口②②口 |②---|
口口口口 |----|
47
口口口口 |①---|
①②③④ |②---|
口口口口 |③---|
口口口口 |④---|
48
①口口口 |①---|
②口口口 |②---|
③口口口 |③---|
④口口口 |④---|
49
口口口口 |①---|
口③口口 |②---|
口口②口 |③---|
口①口口 |----|
50
口口口① |①---|
口口口② |②---|
口口口③ |③---|
口口口④ |④---|
51
口口口口 |①---|
口口③口 |②---|
口②口口 |③---|
口口①口 |----|
52
口①①口 |①---|
口口口口 |----|
口②②口 |②---|
口口口口 |----|
53
①口口① |①---|
口口口口 |----|
②口口② |②---|
口口口口 |----|
54
口①①口 |①---|
口口口口 |----|
口②②口 |②---|
口口口口 |----|
55
口口口口 |①---|
口①②③ |②---|
口口④口 |③---|
口口口口 |④---|
56
③口口④ |①---|
口口口口 |②---|
②①口口 |③---|
口口口口 |④---|
57
口口口口 |①---|
①口口② |②---|
③口口④ |③---|
口口口口 |④---|
58
口口口口 |①---|
口②②口 |②---|
口口口口 |----|
①口口口 |----|
59
口口口口 |①---|
口口口口 |----|
口②口口 |②---|
口①口口 |----|
60
口②口口 |①---|
口①口口 |----|
口口口口 |②---|
口口口口 |----|
61
口口①口 |①---|
口口②口 |----|
口口口口 |②---|
口口口口 |----|
62
口口口口 |①---|
口口口口 |----|
口口①口 |②---|
口口②口 |----|
63
口口口口 |①---|
口口口口 |----|
口②口口 |②---|
口①口口 |----|
64
口②口口 |①---|
口①口口 |----|
口口口口 |②---|
口口口口 |----|
65
口口①口 |①---|
口口②口 |----|
口口口口 |②---|
口口口口 |----|
66
①口口① |①---|
口口口口 |----|
口口口口 |----|
口口口口 |----|
67
口口口口 |①---|
口口口口 |----|
口口②口 |②---|
口口①口 |----|
68
口口②口 |①---|
口口①口 |----|
口口口口 |②---|
口口口口 |----|
69
口①口口 |①---|
口②口口 |----|
口口口口 |②---|
口口口口 |----|
70
口口口口 |①---|
口口口口 |----|
口①口口 |②---|
口②口口 |----|
71
口口口口 |①---|
口口口口 |----|
口口②口 |②---|
口口①口 |----|
72
口口②口 |①---|
口口①口 |----|
口口口口 |②---|
口口口口 |----|
73
口①口口 |①---|
口②口口 |----|
口口口口 |②---|
口口口口 |----|
74
①口口① |①---|
口口口口 |----|
口口口口 |----|
口口口口 |----|
75
口①②口 |①---|
口口口口 |----|
口口口口 |②---|
口口口口 |----|
76
①口口② |①---|
口口口口 |----|
口口口口 |②---|
口口口口 |----|
77
口口口口 |①---|
口①②口 |----|
口口口口 |②---|
口口口口 |----|
78
口口口口 |①---|
①口口② |----|
口口口口 |②---|
口口口口 |----|
79
口口口口 |①---|
口口口口 |----|
口①②口 |②---|
口口口口 |----|
80
口口口口 |①---|
口口口口 |----|
①口口② |②---|
口口口口 |----|
81
口口口口 |①---|
口①②口 |②---|
口③④口 |③---|
口口口口 |④---|
82
①口口① |①---|
口口口口 |----|
口口口口 |----|
口口口口 |----|
83
口①②口 |①---|
口口口口 |----|
口口口口 |②---|
口口口口 |----|
84
①口口② |①---|
口口口口 |----|
口口口口 |②---|
口口口口 |----|
85
口口口口 |①---|
口①②口 |----|
口口口口 |②---|
口口口口 |----|
86
口口口口 |①---|
①口口② |----|
口口口口 |②---|
口口口口 |----|
87
口口口口 |①---|
口口口口 |----|
口①②口 |②---|
口口口口 |----|
88
口口口口 |①---|
口口口口 |----|
①口口② |②---|
口口口口 |----|
89
口②口口 |①---|
口①口口 |----|
口口口口 |②---|
口口口口 |----|
90
口口①口 |①---|
口口②口 |----|
口口口口 |②---|
口口口口 |----|
91
②口口③ |①---|
口①口口 |----|
口口口口 |②---|
口口口口 |③---|
92
口口口口 |①---|
①口口② |②---|
③口口④ |③---|
口口口口 |④---|
93
口口口口 |①---|
口②②口 |②---|
口口口口 |----|
①口口口 |----|
94
①①①① |----|
口口口口 |--①-|
口口口口 |----|
口口口口 |----|

accuracy: 100%
最終更新:2022年07月21日 00:41