アットウィキロゴ
茶渋シンドローム
みゅい

ADVANCED

Level: 6
BPM: 185
Notes: 376

1
口口口口 |----|
口口口口 |----|
口口口口 |----|
口口口口 |----|
2
口口口口 |----|
口口口口 |----|
口口口口 |----|
口口口口 |----|
3
口口口口 |----|
口口口口 |----|
口口口口 |----|
口口口口 |----|
4
口口口口 |----|
口口口口 |----|
口口口口 |----|
口口口口 |----|
5
①口口① |----|
①口口① |①---|
口口口口 |----|
口口口口 |----|
6
②口②口 |①---|
口口口口 |②---|
口①口口 |----|
口口口口 |----|
7
口口口口 |----|
口①口口 |----|
口口口口 |--①-|
口②口口 |--②-|
8
口口口口 |①---|
口口口口 |----|
口口口口 |----|
口口①口 |----|
9
口口口口 |----|
口口①口 |----|
口口口口 |--①-|
口口②口 |--②-|
10
口口口口 |①---|
口口口口 |----|
口口口口 |----|
口①口口 |----|
11
口口口口 |----|
口①口口 |----|
口口口口 |--①-|
口②口口 |--②-|
12
口口口口 |①---|
口口口口 |----|
口口口口 |----|
口口①口 |----|
13
口口口口 |----|
口口①口 |----|
口口口口 |--①-|
口口②口 |--②-|
14
②口口口 |①---|
口口口③ |②---|
④口口口 |③---|
口①口口 |④---|
15
口口①口 |①---|
口②口口 |②---|
口口③口 |③---|
口口口口 |----|
16
口口口④ |①---|
③口口口 |②---|
口口口② |③---|
①口口口 |④---|
17
口①口口 |①---|
口口②口 |②---|
口③口口 |③---|
口口口口 |----|
18
②口口口 |①---|
口口口③ |②---|
④口口口 |③---|
口①口口 |④---|
19
口口①口 |①---|
口②口口 |②---|
口口③口 |③---|
口口口口 |----|
20
口口口④ |①---|
③口口口 |②---|
口口口② |③---|
①口口口 |④---|
21
口①口口 |①---|
口口②口 |②---|
口③口口 |③---|
口口口口 |----|
22
口②③口 |①---|
⑤口口口 |②-③-|
④口口口 |--④-|
口口口① |--⑤-|
23
口口口口 |--①-|
口口口② |--②-|
口口口① |--③-|
口③④口 |④---|
24
口③②口 |①---|
口口口⑤ |②-③-|
口口口④ |--④-|
①口口口 |--⑤-|
25
口口口口 |--①-|
②口口口 |--②-|
①口口口 |--③-|
口④③口 |④---|
26
口②③口 |①---|
⑤口口口 |②-③-|
④口口口 |--④-|
口口口① |--⑤-|
27
口口口口 |--①-|
口口口② |--②-|
口口口① |--③-|
口③④口 |④---|
28
口③②口 |①---|
口口口⑤ |②-③-|
口口口④ |--④-|
①口口口 |--⑤-|
29
口口口口 |--①-|
②口口口 |--②-|
①口口口 |--③-|
口④③口 |④---|
30
口口口① |①---|
口口②口 |----|
口口口口 |②---|
口口口口 |----|
31
口口口口 |①---|
口口口口 |----|
口①口口 |②---|
②口口口 |----|
32
①口口口 |①---|
口②口口 |----|
口口口口 |②---|
口口口口 |----|
33
口口口口 |①---|
口口口口 |----|
口口①口 |②---|
口口口② |----|
34
口口口口 |①---|
口口口口 |----|
口口②口 |②---|
口①口口 |----|
35
口口②口 |①---|
口①口口 |----|
口口口口 |②---|
口口口口 |----|
36
①口口① |①---|
①②②① |----|
口口口口 |----|
口口口口 |②---|
37
口口口口 |①---|
②口口② |----|
②口口② |②---|
口①①口 |----|
38
口④④口 |①---|
口③③口 |②---|
口②②口 |③---|
口①①口 |④---|
39
②口口② |①---|
②口口② |②---|
口口口口 |----|
①口口① |----|
40
口①②口 |①---|
口口口口 |②---|
①⑤⑥② |③-④-|
口③④口 |⑤-⑥-|
41
口口口② |①---|
口①口口 |②---|
口口口③ |③---|
④④口口 |④---|
42
①①口口 |①---|
④口②④ |②---|
口③口口 |③---|
口口口口 |--④-|
43
口③口口 |----|
口口②口 |----|
口①口口 |--①-|
口口口口 |②-③-|
44
②口口④ |①---|
口口口口 |②---|
口口口口 |③---|
①口口③ |④---|
45
口口口口 |①---|
口①①口 |--②-|
口③口口 |----|
②口口② |③---|
46
口①①口 |①---|
③口口④ |②---|
口口②口 |③-④-|
口⑤⑥口 |⑤-⑥-|
47
口口口口 |----|
③①②③ |①---|
口①②口 |②---|
口口口口 |③---|
48
口①②口 |①---|
口口口口 |②---|
①⑤⑥② |③-④-|
口③④口 |⑤-⑥-|
49
口口口② |①---|
口①口口 |②---|
口口口③ |③---|
④④口口 |④---|
50
①①口口 |①---|
④口②④ |②---|
口③口口 |③---|
口口口口 |--④-|
51
口③口口 |----|
口口②口 |----|
口①口口 |--①-|
口口口口 |②-③-|
52
②口口④ |①---|
口口口口 |②---|
口口口口 |③---|
①口口③ |④---|
53
口口口口 |①---|
口①①口 |--②-|
口③口口 |----|
②口口② |③---|
54
口①①口 |①---|
③口口④ |②---|
口口②口 |③-④-|
口⑤⑥口 |⑤-⑥-|
55
①口口① |----|
口口口口 |①---|
口口口口 |②---|
②③④② |③-④-|
56
①②③① |----|
口④⑤口 |①---|
口口口口 |②-③-|
口口口口 |④-⑤-|
57
口口口口 |①-②-|
口口口口 |③-④-|
①⑤⑥② |⑤-⑥-|
③⑦⑧④ |⑦-⑧-|
58
②口口② |①---|
②①①② |②---|
口口口口 |----|
口口口口 |----|
59
口①②口 |①---|
口口口口 |②---|
口①②口 |----|
口口口口 |----|
60
口口口口 |①---|
口口口口 |----|
口口口口 |②---|
口①②口 |----|
61
口口口③ |①---|
③①口口 |②-③-|
口口口口 |----|
口②口口 |----|
62
口口口口 |①---|
口口口口 |----|
口口口口 |②---|
口②①口 |----|
63
①口口② |①---|
口口口口 |②---|
口口口口 |----|
②口口① |----|
64
口口口口 |①---|
口口口口 |----|
口口口口 |②---|
口①②口 |----|
65
口①②口 |①-②-|
口③④口 |③-④-|
口⑤⑥口 |⑤-⑥-|
口⑦⑧口 |⑦-⑧-|
66
①口口① |----|
①口口① |①---|
口口口② |②---|
口口③口 |③---|
67
口①②口 |①---|
口口口口 |②---|
口①②口 |----|
口口口口 |----|
68
口口口口 |①---|
口口口口 |----|
口口口口 |②---|
口①②口 |----|
69
口口口③ |①---|
③①口口 |②-③-|
口口口口 |----|
口②口口 |----|
70
口口口口 |①---|
口口口口 |----|
口口口口 |②---|
口②①口 |----|
71
①口口② |①---|
口口口口 |②---|
口口口口 |----|
②口口① |----|
72
口口口口 |①---|
口口口口 |----|
口口口口 |②---|
口①②口 |----|
73
口①②口 |①-②-|
口③④口 |③-④-|
口⑤⑥口 |⑤-⑥-|
口⑦⑧口 |⑦-⑧-|
74
①口口① |----|
①口口① |①---|
口口口② |②---|
口口③口 |③---|
75
口①②口 |①---|
口口口口 |②---|
口①②口 |----|
口口口口 |----|
76
口口口口 |①---|
口口口口 |----|
口口口口 |②---|
口①②口 |----|
77
口口口口 |①---|
口②口口 |----|
①口口口 |②---|
口口口口 |----|
78
口口口口 |①---|
口口口② |----|
口口①口 |②---|
口口口口 |----|
79
口口口口 |①---|
口口②口 |----|
口口口① |②---|
口口口口 |----|
80
口口口口 |①---|
②口口口 |----|
口①口口 |②---|
口口口口 |----|
81
口①②口 |①-②-|
口③④口 |③-④-|
口⑤⑥口 |⑤-⑥-|
口⑦⑧口 |⑦-⑧-|
82
口口口口 |①---|
①口口① |②---|
口口口口 |----|
②口口② |----|
83
口口口口 |①---|
③④口口 |②---|
①②口口 |③---|
口口口口 |④---|
84
口口口口 |①---|
口口④③ |②---|
口口②① |③---|
口口口口 |④---|
85
口口口口 |①---|
口口口口 |②---|
口②③口 |③---|
口①④口 |④---|
86
③④口口 |①---|
①②口口 |②---|
口口口口 |③---|
口口口口 |④---|
87
口口口口 |①---|
口口口口 |②---|
口③②口 |③---|
口④①口 |④---|
88
口口④③ |①---|
口口②① |②---|
口口口口 |③---|
口口口口 |④---|
89
口口口口 |①---|
①口口口 |②---|
④②口口 |③---|
口口③口 |--④-|
90
口①①口 |----|
口口口③ |①---|
口口口口 |②---|
口②②口 |③---|
91
口口口口 |①---|
①口口口 |②---|
口③④口 |③-④-|
②⑤⑥② |⑤-⑥-|
92
口口口口 |①-②-|
口口口口 |③-④-|
①⑤⑥② |⑤-⑥-|
③⑦⑧④ |⑦-⑧-|
93
②口口② |①---|
②①①② |②---|
口口口口 |----|
口口口口 |----|
94
口口口口 |----|
口口口口 |--①-|
口口口口 |----|
①①①① |----|

accuracy: 100%
最終更新:2022年07月21日 00:53