アットウィキロゴ
茶渋シンドローム
みゅい

EXTREME

Level: 9.0
BPM: 185
Notes: 650

1
口口口口 |----|
口口口口 |----|
口口口口 |----|
口口口口 |----|
2
口口口口 |----|
口口口口 |----|
口口口口 |----|
口口口口 |----|
3
口口口口 |----|
口口口口 |----|
口口口口 |----|
口口口口 |----|
4
口口口口 |----|
口口口口 |----|
口口口口 |----|
口口口口 |----|
5
口①口① |----|
口口口口 |①---|
①口①口 |----|
口口口口 |----|
6
③口③⑤ |①-②-|
口①口④ |③---|
口②口口 |----|
口口口口 |④-⑤-|
7
②口口口 |----|
①口口口 |①-②-|
口⑤④口 |--③-|
口口③口 |④-⑤-|
8
⑤口口③ |①---|
④口口② |②-③-|
口口口口 |----|
口①口口 |④-⑤-|
9
口口口② |----|
口口口① |①-②-|
口④⑤口 |--③-|
口③口口 |④-⑤-|
10
口口口口 |①---|
②③口口 |②-③-|
口口⑤④ |----|
口口①口 |④-⑤-|
11
①口口① |----|
②口口② |①-②-|
口④⑤口 |--③-|
口③口口 |④-⑤-|
12
口口口口 |①---|
②③口口 |②-③-|
口口⑤④ |----|
口口①口 |④-⑤-|
13
①口口① |----|
②口口② |①-②-|
口④⑤口 |--③-|
口③口口 |④-⑤-|
14
口口①④ |①---|
③口口口 |②-③-|
②口口⑤ |--④-|
口口口口 |--⑤-|
15
①②口口 |--①-|
口口④③ |②---|
口口口口 |③-④-|
口口口口 |----|
16
口口口④ |①---|
③⑤口口 |②-③-|
②口口口 |--④-|
口口①口 |--⑤-|
17
④口口口 |--①-|
③口口口 |②---|
口口②① |③-④-|
口口口口 |----|
18
⑥②⑤口 |①---|
口③④口 |②-③-|
口口口口 |④-⑤-|
口口①口 |--⑥-|
19
口口口口 |--①-|
口口口口 |②---|
口口②口 |③-④-|
③④①口 |----|
20
②③⑤口 |①---|
口口口① |②-③-|
口④口口 |--④-|
口口口口 |--⑤-|
21
口口口口 |--①-|
①②④③ |②---|
口口口口 |③-④-|
口口口口 |----|
22
①口口口 |①---|
③⑤④⑥ |②-③-|
②口口口 |--④-|
口口口口 |⑤-⑥-|
23
⑥口口口 |--①-|
⑤口口口 |②-③-|
④口口口 |--④-|
口②①③ |⑤-⑥-|
24
口口口① |①---|
⑥④⑤③ |②-③-|
口口口② |--④-|
口口口口 |⑤-⑥-|
25
口口口⑥ |--①-|
口口口⑤ |②-③-|
口口口④ |--④-|
③①②口 |⑤-⑥-|
26
①口口口 |①---|
③⑤④⑥ |②-③-|
②口口口 |--④-|
口口口口 |⑤-⑥-|
27
⑥口口口 |--①-|
⑤口口口 |②-③-|
④口口口 |--④-|
口②①③ |⑤-⑥-|
28
口口口① |①---|
⑥④⑤③ |②-③-|
口口口② |--④-|
口口口口 |⑤-⑥-|
29
口口口⑥ |--①-|
口口口⑤ |②-③-|
口口口④ |--④-|
③①②口 |⑤-⑥-|
30
①④⑤口 |①---|
口②③口 |--②-|
口⑥口口 |③-④-|
口口口口 |⑤-⑥-|
31
口口口口 |--①-|
①③④口 |--②-|
口口口口 |--③-|
②口口口 |④---|
32
口⑧口口 |①-②-|
口⑥⑦口 |③-④-|
口口⑤口 |⑤-⑥-|
④②①③ |⑦-⑧-|
33
①口口① |--①-|
②口口② |--②-|
③口口③ |--③-|
口口口口 |----|
34
①④⑤口 |①---|
口②③口 |--②-|
口⑥口口 |③-④-|
口口口口 |⑤-⑥-|
35
口口口口 |----|
口口口口 |①-②-|
口口④口 |③---|
口①②③ |④---|
36
口⑥⑥⑦ |①-②-|
①口②① |③-④-|
③④口③ |⑤---|
⑤口口⑤ |⑥-⑦-|
37
④⑦口口 |①-②-|
②①①④ |③---|
⑥③③⑥ |④-⑤-|
口⑤口口 |⑥-⑦-|
38
⑤口①口 |①-②-|
③⑦⑧⑤ |③-④-|
口④口⑦ |⑤-⑥-|
①⑥②③ |⑦-⑧-|
39
口②口② |①---|
口口口口 |②---|
②口②口 |----|
①口①口 |----|
40
口②①口 |①---|
①口口② |②---|
②①②①
口①②口

④口口口
口③③口
口⑥口口 |③-④-|
⑤口口⑤ |⑤-⑥-|
41
口口口口 |①-②-|
③④⑥⑦ |③-④-|
口口②① |⑤---|
口⑤⑤口 |⑥-⑦-|
42
②①④口 |①-②-|
⑥③⑥口 |③-④-|
口⑤③⑤ |⑤-⑥-|
⑦④⑦口 |--⑦-|
43
口口口③ |①---|
④②口① |②---|
⑤口口口 |③-④-|
口⑥口口 |⑤-⑥-|
44
口①①口 |①---|
④口口④ |②-③-|
口⑤②口 |④---|
口⑥③口 |⑤-⑥-|
45
①③③① |①-②-|
③口口③ |--③-|
口④口口 |----|
②⑤口② |④-⑤-|
46
①⑧⑧① |①-②-|
⑦③③⑦ |③-④-|
②口④口 |⑤-⑥-|
⑤口⑥⑤ |⑦-⑧-|
47
④口口④ |--①-|
口②口口 |②-③-|
①口③口 |④---|
⑤口口⑤ |⑤---|
48
口②①口 |①---|
①口口② |②---|
②①②①
口①②口

④口口口
口③③口
口⑥口口 |③-④-|
⑤口口⑤ |⑤-⑥-|
49
口口口口 |①-②-|
③④⑥⑦ |③-④-|
口口②① |⑤---|
口⑤⑤口 |⑥-⑦-|
50
②①④口 |①-②-|
⑥③⑥口 |③-④-|
口⑤③⑤ |⑤-⑥-|
⑦④⑦口 |--⑦-|
51
口口口③ |①---|
④②口① |②---|
⑤口口口 |③-④-|
口⑥口口 |⑤-⑥-|
52
口①①口 |①---|
④口口④ |②-③-|
口⑤②口 |④---|
口⑥③口 |⑤-⑥-|
53
①③③① |①-②-|
③口口③ |--③-|
口④口口 |----|
②⑤口② |④-⑤-|
54
①⑧⑧① |①-②-|
⑦③③⑦ |③-④-|
②口④口 |⑤-⑥-|
⑤口⑥⑤ |⑦-⑧-|
55
②⑥⑤④ |--①-|
⑥④②⑤ |②-③-|
口口③口 |④---|
口①口口 |⑤-⑥-|
56
③口⑤口 |--①-|
口④②⑥ |②---|
口口口② |③-④-|
口口①口 |⑤-⑥-|
57
口口口① |①-②-|
⑦口②⑦ |③-④-|
④③⑧口 |⑤-⑥-|
⑤⑥⑤口 |⑦-⑧-|
58
②口②④ |①---|
口①①③ |②---|
口②口② |--③-|
口口口口 |④---|
59
③口⑤口 |①-②-|
口③口口 |③---|
①口④口 |④---|
②口口口 |⑤---|
60
口口口② |①---|
口口④口 |②---|
口口口① |③---|
口口③口 |④---|
61
口⑥③口 |①-②-|
口④口① |③-④-|
③⑤②口 |⑤---|
口①口口 |⑥---|
62
口口口口 |①---|
②④口口 |②---|
口口口口 |③---|
①③口口 |④---|
63
④②口② |①---|
口口口口 |②---|
③口口口 |③---|
①口①口 |④---|
64
口②口口 |①---|
口④口口 |②---|
口①口口 |③---|
口③口口 |④---|
65
①⑦②⑥ |①-②-|
③⑧④⑧ |③-④-|
⑤口口口 |⑤-⑥-|
口⑥口⑦ |⑦-⑧-|
66
②口②⑥ |①---|
口口④⑤ |②---|
口②③② |③-④-|
①口①口 |⑤-⑥-|
67
③口⑤口 |①-②-|
口③口口 |③---|
①口④口 |④---|
②口口口 |⑤---|
68
口口口② |①---|
口口④口 |②---|
口口口① |③---|
口口③口 |④---|
69
口⑥③口 |①-②-|
口④口① |③-④-|
③⑤②口 |⑤---|
口①口口 |⑥---|
70
口口口口 |①---|
②④口口 |②---|
口口口口 |③---|
①③口口 |④---|
71
④②口② |①---|
口口口口 |②---|
③口口口 |③---|
①口①口 |④---|
72
口②口口 |①---|
口④口口 |②---|
口①口口 |③---|
口③口口 |④---|
73
①⑦②⑥ |①-②-|
③⑧④⑧ |③-④-|
⑤口口口 |⑤-⑥-|
口⑥口⑦ |⑦-⑧-|
74
②口②⑥ |①---|
口口④⑤ |②---|
口②③② |③-④-|
①口①口 |⑤-⑥-|
75
④②②④ |①---|
口口口口 |②---|
②③口② |③---|
口①①口 |④---|
76
口④口④ |①---|
口①口口 |②---|
③口口口 |③---|
口②②口 |④---|
77
④口④口 |①---|
③①口口 |②---|
口口口口 |③---|
口②②口 |④---|
78
口②④口 |①---|
③④口口 |②---|
口①口② |③---|
口口口口 |④---|
79
口口口口 |①---|
口口口口 |②---|
④③④口 |③---|
②①②口 |④---|
80
口②④口 |①---|
口①口口 |②---|
④③口② |③---|
口口口口 |④---|
81
口口口口 |①-②-|
口口口口 |③-④-|
⑦⑤⑥⑧ |⑤-⑥-|
③①②④ |⑦-⑧-|
82
口①①⑤ |①---|
口口口④ |②---|
口口③口 |③-④-|
口②②口 |⑤---|
83
口口①口 |①---|
④口④口 |②---|
口⑤口③ |③---|
口②②口 |④-⑤-|
84
口口①③ |①---|
口④口口 |②---|
口口口口 |③---|
口②②④ |④---|
85
③口①口 |①---|
口⑥口④ |②-③-|
口②②口 |④---|
口⑤口⑤ |⑤-⑥-|
86
口④②口 |①---|
口口口口 |②---|
②口③④ |③---|
口口①口 |④---|
87
口口口口 |①---|
③口口口 |②-③-|
口⑤④⑤ |④---|
口②①② |⑤---|
88
口④②口 |①---|
口口①口 |②---|
②口③④ |③---|
口口口口 |④---|
89
⑤口⑤口 |①-②-|
口⑤口口 |③-④-|
口⑥⑥口 |⑤---|
③①②④ |--⑥-|
90
口④口④ |--①-|
口口④① |②-③-|
口⑥口② |④---|
口⑤口③ |⑤-⑥-|
91
④⑤③⑦ |①-②-|
口③⑥③ |③---|
口口①口 |④-⑤-|
口口②口 |⑥-⑦-|
92
⑥口②口 |①-②-|
③口口③ |③-④-|
①⑦①⑦ |⑤-⑥-|
⑧⑤④⑤ |⑦-⑧-|
93
口②口② |①---|
⑤①①④ |②---|
②③②口 |--③-|
口口口口 |④-⑤-|
94
④④④④ |①-②-|
口口①口 |③-④-|
②口③口 |----|
口口口口 |----|

accuracy: 100%
最終更新:2022年07月21日 15:54