アットウィキロゴ
アモ
八月二雪

BASIC

Level: 3
BPM: 190
Notes: 162

1
口口口口 |----|
口口口口 |----|
口口口口 |----|
口口口口 |----|
2
口口口口 |----|
口口口口 |----|
口口口口 |----|
口口口口 |----|
3
口口口口 |①---|
口口口口 |----|
口①口口 |----|
口口口口 |----|
4
口口口口 |①---|
口口口口 |----|
口口①口 |----|
口口口口 |----|
5
口口口口 |①---|
口口口口 |----|
口口口口 |----|
口口①口 |----|
6
口口口口 |①---|
口口口口 |----|
口口口口 |----|
口①口口 |----|
7
口口口口 |①---|
口口口口 |----|
口口口口 |----|
口口①口 |----|
8
口口口口 |①---|
口口口口 |----|
口①口口 |----|
口口口口 |----|
9
口口口口 |①---|
口口①口 |----|
口口口口 |----|
口口口口 |----|
10
口①口口 |①---|
口口口口 |----|
口口口口 |----|
口口口口 |----|
11
口口口口 |①---|
口口口① |----|
口口口口 |----|
口口口口 |----|
12
口口口口 |①---|
口口①口 |----|
口口口口 |----|
口口口口 |----|
13
口口口口 |①---|
口①口口 |----|
口口口口 |----|
口口口口 |----|
14
口口口口 |①---|
①口口口 |----|
口口口口 |----|
口口口口 |----|
15
口口口口 |①---|
口口口口 |----|
口①①口 |----|
口口口口 |----|
16
口口口口 |①---|
口口口口 |----|
口口口口 |----|
口①①口 |----|
17
口口口口 |①---|
①口口① |----|
口口口口 |----|
口口口口 |----|
18
口口口口 |----|
口口口口 |----|
口口口口 |----|
口口口口 |----|
19
口口口① |①---|
口口口口 |----|
口口口口 |----|
口口口口 |----|
20
口口口口 |①---|
口口①口 |----|
口口口口 |----|
口口口口 |----|
21
①口口口 |①---|
口口口口 |----|
口口口口 |----|
口口口口 |----|
22
口口口口 |①---|
口①口口 |----|
口口口口 |----|
口口口口 |----|
23
口口口口 |①---|
口口口口 |----|
口①口口 |----|
口口口口 |----|
24
口口口口 |①---|
口口口口 |----|
口口①口 |----|
口口口口 |----|
25
口口口口 |①---|
口①①口 |----|
口口口口 |----|
口口口口 |----|
26
口口口口 |①---|
①口口① |----|
口口口口 |----|
口口口口 |----|
27
①①口口 |①---|
口口口口 |----|
口口口口 |----|
口口口口 |----|
28
口口口① |①---|
口口口口 |----|
口口口口 |----|
口口口口 |----|
29
口口口口 |①---|
①①口口 |----|
口口口口 |----|
口口口口 |----|
30
口口口口 |①---|
口③②① |②---|
口口口口 |③---|
口口口口 |----|
31
口口口口 |①---|
口口口口 |----|
口①①口 |----|
口口口口 |----|
32
口口口口 |①---|
口口口口 |----|
①口口① |----|
口口口口 |----|
33
口口口口 |①---|
口口口口 |----|
口口口口 |----|
口①①口 |----|
34
口口口口 |①---|
②口口② |----|
①口口① |②---|
口口口口 |----|
35
口口①① |①---|
口口口口 |----|
口口口口 |----|
口口口口 |----|
36
①口口口 |①---|
口口口口 |----|
口口口口 |----|
口口口口 |----|
37
口口口口 |①---|
口口①① |----|
口口口口 |----|
口口口口 |----|
38
口口口口 |①---|
①②③口 |②---|
口口口口 |③---|
口口口口 |----|
39
口口口口 |①---|
口口口口 |----|
口①①口 |----|
口口口口 |----|
40
口口口口 |①---|
口口口口 |----|
①口口① |----|
口口口口 |----|
41
口口口口 |①---|
口口口口 |----|
口口口口 |----|
口①①口 |----|
42
口口口口 |①---|
②口口② |----|
①口口① |②---|
口口口口 |----|
43
口①口口 |①---|
口口口口 |----|
口口口口 |----|
口口口口 |----|
44
口口①口 |①---|
口口口口 |----|
口口口口 |----|
口口口口 |----|
45
口口口口 |①---|
口口①口 |----|
口口口口 |----|
口口口口 |----|
46
口口口口 |①---|
口①口口 |----|
口口口口 |----|
口口口口 |----|
47
①口口口 |①---|
口口口口 |----|
口口口口 |----|
口口口口 |----|
48
口口口口 |①---|
口①口口 |----|
口口口口 |----|
口口口口 |----|
49
口口口口 |①---|
口口口口 |----|
口①①口 |----|
口口口口 |----|
50
口口口口 |----|
口口口口 |----|
口口口口 |----|
口口口口 |----|
51
口口口口 |①---|
口口口① |----|
口口口口 |----|
口口口口 |----|
52
口口口口 |①---|
口口①口 |----|
口口口口 |----|
口口口口 |----|
53
口口口口 |①---|
口①口口 |----|
口口口口 |----|
口口口口 |----|
54
口口口口 |①---|
①口口口 |----|
口口口口 |----|
口口口口 |----|
55
①①①① |①---|
口口口口 |----|
口口口口 |----|
口口口口 |----|
56
口口口口 |----|
口口口口 |----|
口口口口 |----|
口口口口 |----|
57
口口口口 |①---|
①①①① |----|
口口口口 |----|
口口口口 |----|
58
口口口口 |----|
口口口口 |----|
口口口口 |----|
口口口口 |----|
59
口口口口 |①---|
口口口口 |----|
①口口口 |②---|
口②口口 |----|
60
口口口口 |①---|
口口口口 |----|
口口口② |②---|
口口①口 |----|
61
口口口口 |----|
口①口口 |①---|
口②口口 |----|
口口口口 |②---|
62
口口口口 |----|
口口①口 |①---|
口口②口 |----|
口口口口 |②---|
63
口口口口 |----|
口口②① |①---|
口口口口 |----|
口口口口 |②---|
64
口口口口 |----|
②①口口 |①---|
口口口口 |----|
口口口口 |②---|
65
口口口口 |----|
口口口口 |①---|
①②口口 |----|
口口口口 |②---|
66
口口口口 |----|
口口口口 |①---|
口口①② |----|
口口口口 |②---|
67
口口口口 |----|
口口口口 |①---|
口②②口 |----|
口①①口 |②---|
68
口②②口 |----|
口①①口 |①---|
口口口口 |----|
口口口口 |②---|
69
口口口口 |----|
口口①口 |①---|
口口②口 |----|
口口口口 |②---|
70
口口口口 |----|
口①口口 |①---|
口②口口 |----|
口口口口 |②---|
71
口口口口 |----|
①②口口 |①---|
口口口口 |----|
口口口口 |②---|
72
口口口口 |----|
口口①② |①---|
口口口口 |----|
口口口口 |②---|
73
②①①② |----|
口口口口 |①---|
口口口口 |----|
口口口口 |②---|
74
口口口口 |----|
②①①② |①---|
口口口口 |----|
口口口口 |②---|
75
口口口口 |----|
口口口口 |①---|
②①①② |----|
口口口口 |②---|
76
口口口口 |----|
口口口口 |①---|
口口口口 |----|
②①①② |②---|
77
口口口口 |①---|
口口口口 |----|
口口①口 |----|
口口口口 |----|
78
口口口口 |①---|
口口口口 |----|
口①口口 |----|
口口口口 |----|
79
口口口口 |①---|
口①口口 |----|
口口口口 |----|
口口口口 |----|
80
口口口口 |①---|
口口①口 |----|
口②口口 |②---|
口口口口 |----|
81
口口口口 |①---|
口口口口 |----|
口口口口 |----|
口口①口 |----|
82
口口口口 |①---|
口口口口 |----|
口①①口 |----|
口口口口 |----|
83
口口口口 |①---|
①口口① |----|
口口口口 |----|
口口口口 |----|
84
①口口① |①---|
②口口② |----|
口口口口 |②---|
口口口口 |----|
85
口口口口 |①---|
口口口口 |----|
①口口① |----|
口口口口 |----|
86
口口口口 |①---|
口口口口 |----|
口口口口 |----|
口①口口 |----|
87
口口口口 |①---|
口口口口 |----|
口口口口 |----|
口口①口 |----|
88
口口口口 |①---|
②口口② |----|
口①①口 |②---|
口口口口 |----|
89
口①①口 |①---|
口口口口 |----|
口口口口 |----|
口口口口 |----|
90
口口口口 |①---|
口①①口 |----|
口口口口 |----|
口口口口 |----|
91
①①①① |①---|
口口口口 |----|
口口口口 |----|
口口口口 |----|

accuracy: 100%
最終更新:2022年08月02日 02:26