アットウィキロゴ
アモ
八月二雪

ADVANCED

Level: 5
BPM: 190
Notes: 304

1
口口口口 |----|
口口口口 |----|
口口口口 |----|
口口口口 |----|
2
口口口口 |----|
口口口口 |----|
口口口口 |----|
口口口口 |----|
3
口口口口 |----|
口口③口 |①---|
口①口② |②---|
口口口口 |③---|
4
口②口口 |①---|
①口口口 |②---|
口口口③ |----|
口口口口 |③---|
5
口口口口 |①---|
口②②口 |----|
口口口口 |②---|
口①口口 |----|
6
①口口② |①---|
口口口口 |②---|
口口口口 |----|
口口口口 |----|
7
口口口口 |----|
口口口③ |①---|
①口②口 |②---|
口口口口 |③---|
8
口口②口 |①---|
口①口口 |②---|
口③口口 |----|
口口口口 |③---|
9
①口口口 |①---|
口口口口 |----|
口口口口 |----|
口口口口 |----|
10
口①①口 |①---|
口口口口 |----|
口②②口 |②---|
口口口口 |----|
11
口口口③ |----|
②口口口 |①---|
口口口① |②---|
口口口口 |③---|
12
③口口口 |----|
口口口② |①---|
①口口口 |②---|
口口口口 |③---|
13
口口口③ |----|
②口口口 |①---|
口口口① |②---|
口口口口 |③---|
14
①口口口 |①---|
口口口② |②---|
③口口口 |③---|
口口口口 |----|
15
口口口口 |----|
口口口口 |----|
口口口② |①---|
①口口口 |②---|
16
③③③③ |①---|
①口口口 |--②-|
口口口口 |----|
口②②口 |③---|
17
口口口口 |----|
口口口口 |----|
口口口口 |----|
口口口口 |----|
18
口口口口 |----|
口口口口 |----|
口口口口 |----|
口口口口 |----|
19
口口②口 |①---|
口口口② |----|
口①口口 |②---|
口口口口 |----|
20
口②口口 |①---|
②口口口 |----|
口口①口 |②---|
口口口口 |----|
21
口口①口 |①---|
口口口① |----|
口口口口 |②---|
口②②口 |----|
22
口①口口 |①---|
口口①口 |----|
口②口口 |②---|
口口②口 |----|
23
口②口口 |①---|
②口口口 |----|
口口①口 |②---|
口口口口 |----|
24
口口②口 |①---|
口口口② |----|
口①口口 |②---|
口口口口 |----|
25
口①口口 |①---|
①口口口 |----|
口口口口 |----|
口口口口 |----|
26
口口口口 |①---|
③口口③ |②---|
口①②口 |③---|
口①②口 |----|
27
①②①口 |①---|
口③口口 |----|
口口口口 |②---|
口口口口 |③---|
28
口口口口 |①---|
口口口口 |②---|
口①④口 |③---|
口②③口 |④---|
29
②口口① |①---|
口②①口 |----|
口口口口 |②---|
口口口口 |----|
30
口口口口 |①---|
口口③口 |----|
②口口① |②---|
口口①口 |③---|
31
①①②② |①---|
口口口口 |----|
口口口口 |②---|
口口口口 |----|
32
口口口口 |①---|
口口口口 |----|
②②①① |②---|
口口口口 |----|
33
口口口口 |①---|
口①②口 |----|
口②①口 |②---|
口口口口 |----|
34
口①①口 |①---|
口口口口 |----|
口口口口 |②---|
口②②口 |----|
35
口①②① |①---|
口口③口 |----|
口口口口 |②---|
口口口口 |③---|
36
口口口口 |①---|
口口口口 |②---|
口④①口 |③---|
口③②口 |④---|
37
①口口② |①---|
口①②口 |----|
口口口口 |②---|
口口口口 |----|
38
口口口口 |①---|
口③口口 |----|
①口口② |②---|
口①口口 |③---|
39
②②①① |①---|
口口口口 |----|
口口口口 |②---|
口口口口 |----|
40
口口口口 |①---|
口口口口 |----|
①①②② |②---|
口口口口 |----|
41
口口口口 |①---|
口②①口 |----|
口①②口 |②---|
口口口口 |----|
42
口①①口 |①---|
口口口口 |----|
口口口口 |②---|
口②②口 |----|
43
①口口④ |①---|
口②③口 |②---|
口口口口 |③---|
口口口口 |④---|
44
口口口口 |----|
口口口口 |----|
口①口口 |----|
口口口口 |①---|
45
口口口② |①---|
③口①口 |②---|
口口④口 |--③-|
口口口口 |--④-|
46
口口口口 |----|
口口口口 |----|
口口口口 |----|
口口口口 |----|
47
口①口口 |①---|
①口口口 |----|
口口口口 |----|
口口口口 |----|
48
口口①口 |①---|
口口口① |----|
口口口口 |----|
口口口口 |----|
49
口口口口 |①---|
口口口口 |----|
口口口口 |----|
口①①口 |----|
50
口口口口 |----|
①口口口 |----|
口②口口 |①---|
口口口口 |②---|
51
口口口口 |①---|
口口②口 |----|
口口口口 |----|
口口①口 |②---|
52
口①口口 |①---|
口口口口 |----|
口口口② |----|
口口口口 |②---|
53
口口口口 |①---|
口口①③ |②---|
口②口口 |----|
口口口口 |③---|
54
②口①口 |①---|
口口口口 |--②-|
口口口③ |----|
口口口口 |③---|
55
口口口口 |①---|
口①①口 |----|
口口口口 |----|
口口口口 |----|
56
口口口口 |----|
①口口口 |----|
口口口口 |----|
口口口口 |①---|
57
口口口口 |①---|
口口口口 |----|
口口口口 |----|
口①①口 |----|
58
口口口口 |----|
口口口口 |----|
口口口口 |----|
口口口口 |----|
59
口口口口 |①---|
③口口③ |②---|
口①②口 |③---|
口口口口 |----|
60
口①①口 |①---|
口口口口 |----|
口②②口 |②---|
口口口口 |----|
61
口口口口 |①---|
①②③④ |②---|
口口口口 |③---|
口口口口 |④---|
62
口口口口 |①---|
口口口口 |②---|
④③②① |③---|
口口口口 |④---|
63
口口口口 |①---|
口口口口 |②---|
口④③口 |③---|
口①②口 |④---|
64
③④口③ |①---|
①口②① |②---|
口口口口 |③---|
口口口口 |④---|
65
口口口口 |①---|
③口口② |②---|
口①①④ |③---|
口口口口 |④---|
66
口口口口 |①---|
口口口口 |②---|
②①①口 |③---|
④口口③ |④---|
67
口口口口 |①---|
③口口② |--②-|
③①①② |----|
口口口口 |③---|
68
口①①口 |①---|
口②口口 |②---|
口④口③ |③---|
口口口口 |④---|
69
口口口口 |①---|
④③②① |②---|
口口口口 |③---|
口口口口 |④---|
70
口口口口 |①---|
口口口口 |②---|
①②③④ |③---|
口口口口 |④---|
71
口口口口 |①---|
口口口口 |②---|
口③④口 |③---|
口②①口 |④---|
72
③口④③ |①---|
①②口① |②---|
口口口口 |③---|
口口口口 |④---|
73
口口口口 |①---|
②口口③ |②---|
④①①口 |③---|
口口口口 |④---|
74
口口口口 |①---|
口口口口 |②---|
口①①② |③---|
③口口④ |④---|
75
口口口口 |①---|
口①①口 |----|
口①①口 |----|
口口口口 |----|
76
①口口② |①---|
③口口④ |②---|
口口口口 |③---|
口口口口 |④---|
77
口口口口 |①---|
口②①口 |----|
口①②口 |②---|
口口口口 |----|
78
口①①口 |①---|
口口口口 |----|
口③②口 |②---|
口口口口 |③---|
79
口口口口 |①---|
①口口① |----|
口口口口 |----|
口口口口 |----|
80
①①口口 |①---|
②②口口 |----|
口口口口 |②---|
口口口口 |----|
81
口口口口 |①---|
口口②口 |----|
①①口② |②---|
口口口口 |----|
82
口口口口 |①---|
口②口口 |----|
②口口口 |②---|
口①①口 |----|
83
①口口① |①---|
口口口口 |----|
口口口口 |----|
口口口口 |----|
84
口口口口 |①---|
①口口② |----|
①口口② |②---|
口口口口 |----|
85
口口口口 |①---|
口①②口 |----|
口②①口 |②---|
口口口口 |----|
86
口①①口 |①---|
口口口口 |----|
口②③口 |②---|
口口口口 |③---|
87
口口口口 |①---|
①口口① |----|
口口口口 |----|
口口口口 |----|
88
口口口口 |①---|
口口②② |----|
口口①① |②---|
口口口口 |----|
89
口口①① |①---|
口②口口 |----|
②口口口 |②---|
口口口口 |----|
90
口口口口 |①---|
口口②口 |----|
口口口② |②---|
口①①口 |----|
91
①①①① |①---|
口口口口 |----|
口口口口 |----|
口口口口 |----|

accuracy: 100%
最終更新:2022年08月02日 02:36