アットウィキロゴ
アモ
八月二雪

EXTREME

Level: 9.1
BPM: 190
Notes: 616

1
口口口口 |----|
口口口口 |----|
口口口口 |----|
口口口口 |----|
2
口口口口 |----|
口口口口 |----|
口口口口 |----|
口口口口 |----|
3
口口口口 |----|
②口口③ |①---|
口①口口 |②---|
口口口口 |③---|
4
口口①口 |①---|
口口口⑤ |②-③-|
口②口④ |----|
口③口口 |④-⑤-|
5
②③口① |①---|
口口⑤④ |--②-|
口口口口 |③---|
口口口口 |④-⑤-|
6
口口口口 |--①-|
口口口口 |②-③-|
①②口口 |----|
口口③口 |----|
7
口口口口 |----|
③口②口 |①---|
口口口① |②---|
口口口口 |③---|
8
口①口② |①---|
口⑤⑥③ |②-③-|
口④口口 |--④-|
口口口口 |⑤-⑥-|
9
②口①口 |①---|
口口口口 |----|
口口口口 |----|
口口口口 |②---|
10
口口口① |①---|
口口口口 |--②-|
口②口口 |③---|
口③口口 |----|
11
口口④口 |①---|
①③口① |②---|
口口②④ |③---|
口口口口 |④---|
12
①④口① |①---|
口口③口 |②---|
口②④口 |③---|
口口口口 |④---|
13
口口③口 |①---|
口④口② |②---|
①口口① |③---|
口口口口 |④---|
14
①口口口 |①---|
口口②口 |②-③-|
口口③口 |④---|
口④口口 |----|
15
口口口口 |①---|
①③③① |----|
②②口口 |②---|
口口口口 |③---|
16
口③①① |①---|
③口口口 |--②-|
口口口② |----|
口口②口 |③---|
17
口口口口 |①---|
口口口① |----|
口口口口 |----|
口口口口 |----|
18
①口口口 |①---|
口口口口 |----|
口口口口 |----|
口口口口 |----|
19
口⑤口口 |①-②-|
⑤口口口 |③-④-|
①②③④ |⑤---|
口口口口 |----|
20
口口⑤口 |①-②-|
口口口⑤ |③-④-|
口口口口 |⑤---|
④③②① |----|
21
口口口① |①-②-|
口口①口 |③-④-|
①②③④ |⑤-⑥-|
⑤⑥⑦⑧ |⑦-⑧-|
22
①口①口 |①---|
口①②口 |----|
口口口② |②---|
口②口口 |----|
23
口⑤口口 |①-②-|
⑤口口口 |③-④-|
①②③④ |⑤---|
口口口口 |----|
24
口口⑤口 |①-②-|
口口口⑤ |③-④-|
口口口口 |⑤---|
④③②① |----|
25
口口口① |①-②-|
口口①口 |③-④-|
①②③④
口口口口

⑤⑥⑦⑧
口口口口
口口口口 |⑤-⑥-|
口口口口 |⑦-⑧-|
26
口口口口 |①---|
①②口③ |②---|
口④④口 |③---|
②①③口 |④---|
27
①①口② |①---|
口④①口 |----|
①口口③ |②-③-|
口⑤口口 |④-⑤-|
28
③口①③ |①---|
⑤口③① |②-③-|
①⑤②④ |--④-|
口口④② |⑤---|
29
⑤①②⑧ |①---|
⑦①口④ |----|
③⑨口口 |②③④⑤|
①①⑥口 |⑥⑦⑧⑨|
30
口②口口 |①---|
口⑧②⑦ |②---|
⑤口⑥① |③-④-⑤-|
②④口③ |⑥-⑦-⑧-|
31
②口③① |①---|
口口口口 |②---|
口④口① |③---|
②④③口 |④---|
32
②②口① |①---|
口口①口 |----|
①口①口 |②---|
②口口口 |----|
33
口口①⑥ |①---|
②口⑤① |②-③-|
③口④口 |--④-|
口①①口 |⑤-⑥-|
34
口口①口 |①---|
③①⑤② |----|
④①⑤口 |②--③|
③口②② |④-⑤-|
35
②口①① |①---|
口①④口 |----|
③口口① |②-③-|
口口⑤口 |④-⑤-|
36
③①口③ |①---|
①③口⑤ |②-③-|
④②⑤① |--④-|
②④口口 |⑤---|
37
⑧②①⑤ |①---|
④口①⑦ |----|
口口⑨③ |②③④⑤|
口⑥①① |⑥⑦⑧⑨|
38
口口②口 |①---|
⑦②⑧口 |②---|
①⑥口⑤ |③-④-⑤-|
③口④② |⑥-⑦-⑧-|
39
①③口② |①---|
口口口口 |②---|
①口④口 |③---|
口③④② |④---|
40
①口②② |①---|
口①口口 |----|
口①口① |②---|
口口口② |----|
41
⑥①口口 |①---|
①⑤口② |②-③-|
口④口③ |--④-|
口①①口 |⑤-⑥-|
42
口①口口 |①---|
②⑤①③ |----|
②⑤①④ |②--③|
口②口③ |④-⑤-|
43
③①⑥① |①---|
口⑥口口 |②-③-|
口口②⑤ |--④-|
口④口口 |⑤-⑥-|
44
口口口口 |①---|
口口③口 |----|
口②口② |----|
口口①口 |②-③-|
45
②①口① |①---|
④②口③ |②-③-|
口口③口 |--④-|
④⑤口⑤ |--⑤-|
46
口口口① |①---|
口口口口 |----|
口口口口 |②---|
口口②口 |----|
47
④口口口 |①---|
①口①口 |--②-|
口③口③ |----|
①口②口 |③-④-|
48
口口①口 |①---|
①口②口 |②---|
③④口口 |③---|
口口口④ |④---|
49
口①口口 |①---|
口口③① |--②-|
口口口口 |----|
口②口口 |③---|
50
②口①口 |①---|
①口口③ |----|
口口②口 |②---|
口③口口 |③---|
51
口口口口 |①---|
①①口口 |--②-|
口口口口
②口①①

口口口口
口④口口
口③口③ |----|
口口口口 |③-④-|
52
口口口① |①---|
口口口口 |----|
口③①口 |----|
②口②口 |②-③-|
53
口②口口 |①---|
②口③① |②-③-|
口口口③ |----|
④口④① |④---|
54
④②口① |①---|
口口③口 |--②-|
②④①口 |③---|
口口口口 |④---|
55
口口口① |①---|
③①口口 |--②-|
口口口口 |----|
口口②口 |③---|
56
口口口口 |①---|
④口④口 |②---|
口③①① |③---|
②口口口 |④---|
57
①口③口 |①---|
口口口③ |②---|
①口口口 |③---|
口②④口 |④---|
58
口①④④ |①---|
①口口口 |②---|
②②③③ |③---|
口口口口 |④---|
59
①①⑤口 |①---|
④④⑥② |②-③-|
⑦口口口 |④--⑤|
②②③④ |⑥-⑦-|
60
③口口② |①-②-|
⑥口口⑥ |③-④-|
口⑤④① |⑤---|
⑥④⑤⑥ |⑥---|
61
口①②② |①---|
口③⑤⑤ |②---|
①口口口 |③-④-|
口④口口 |⑤---|
62
口口③口 |①---|
④口⑤口 |②-③-|
⑥①②② |④-⑤-|
④口⑥⑥ |⑥---|
63
①①②② |①---|
口③④④ |②---|
口口口口 |③---|
口口口口 |④---|
64
①③②④ |①---|
口口口口 |②---|
口口口口 |③---|
①③②④ |④---|
65
口口口口 |①---|
③口②⑤ |②---|
①口⑤② |③-④-|
①④口口 |⑤---|
66
①口①口 |①---|
⑥②③⑤ |②-③-|
②⑥口口 |④-⑤-|
口口④口 |⑥---|
67
④口②② |①---|
口口④④ |②-③-|
③④①口 |----|
①口③口 |④---|
68
口①口口 |①---|
①③口④ |②---|
口口②② |③---|
口②④④ |④---|
69
口①②② |①---|
口③⑤⑤ |②---|
①口口口 |③-④-|
口④口口 |⑤---|
70
口口③口 |①---|
④口⑤口 |②-③-|
⑥①②② |④-⑤-|
④口⑥⑥ |⑥---|
71
①①②② |①---|
口③④④ |②---|
口口口口 |③---|
口口口口 |④---|
72
①口口③ |①---|
口口口口 |②---|
口②②口 |③---|
①④④③ |④---|
73
口口口口 |①---|
③口②⑤ |②---|
①口⑤② |③-④-|
①④口口 |⑤---|
74
①口①口 |①---|
⑥②③⑤ |②-③-|
②⑥口口 |④-⑤-|
口口④口 |⑥---|
75
口口②② |①---|
口③⑤⑤ |②---|
口口口口 |③-④-|
①④口① |⑤---|
76
④②④④ |①-②-|
口口口口 |③---|
口①③③ |④---|
⑤口⑤⑤ |⑤---|
77
④口③口 |①---|
③①口③ |--②-|
口口②口 |③---|
口①口口 |④---|
78
口口口口 |①---|
口口③口 |----|
②①口② |②---|
口②口口 |③---|
79
口①①口 |①---|
①口口③ |--②-|
口口口口 |----|
口口②口 |③---|
80
①口口① |①---|
口①口口 |----|
口口②口 |②---|
②口口② |----|
81
口③口④ |①---|
③口①③ |--②-|
口②口口 |③---|
口口①口 |④---|
82
口口口口 |①---|
口③口口 |----|
②口①② |②---|
口口②口 |③---|
83
口①①口 |①---|
③口口① |--②-|
口口口口 |----|
口②口口 |③---|
84
口④口① |①---|
口口口口 |②---|
③口口口 |③---|
口口②口 |④---|
85
④口③口 |①---|
口①口③ |--②-|
口口②口 |③---|
口①口口 |④---|
86
口口口口 |①---|
口口口口 |----|
②①③口 |②---|
口②口口 |③---|
87
口①①口 |①---|
①口口③ |--②-|
口口口口 |----|
口口②口 |③---|
88
①口口① |①---|
口②口口 |----|
口①口口 |②---|
②口口② |----|
89
①③①④ |①---|
③口口口 |--②-|
口②口① |③---|
口口口口 |④---|
90
口②口口 |①---|
②④口口 |----|
③口①口 |②---|
口口口口 |③-④-|
91
口口①口 |①---|
口口口口 |----|
口口口① |----|
口口①口 |----|

accuracy: 100%
最終更新:2022年08月02日 02:52