アットウィキロゴ
太陽の滴
CANVAS feat. Quimär

BASIC

Level: 3
BPM: 160
Notes: 287

1
口口口口 |----|
口口口口 |----|
口口口口 |----|
口口口口 |----|
2
口②②口 |①---|
①口口口 |----|
口口口口 |②---|
口口口口 |----|
3
口口口① |①---|
口口口口 |----|
口②②口 |②---|
口口口口 |----|
4
口②②口 |①---|
口口口① |----|
口口口口 |②---|
口口口口 |----|
5
①口口口 |①---|
口口口口 |----|
口②②口 |②---|
口口口口 |----|
6
口③③口 |①---|
①②口口 |②---|
口口口口 |③---|
口口口口 |----|
7
口口口① |①---|
口口②口 |②---|
口③③口 |③---|
口口口口 |----|
8
口③③口 |①---|
口口②① |②---|
口口口口 |③---|
口口口口 |----|
9
①口口口 |①---|
口②口口 |②---|
口口口口
口口口口
10
口口口口 |①---|
口口口口 |②---|
口①②③ |③---|
口口口口 |----|
11
口口口口 |①---|
③②①口 |②---|
口口口口 |③---|
口口口口 |----|
12
口口③口 |①---|
口口②口 |②---|
口口①口 |③---|
口口口口 |----|
13
口口口口 |①---|
口①口口 |②---|
口②口口 |③---|
口③口口 |----|
14
口口口口 |①---|
口口口口 |②---|
③②①口 |③---|
口口口口 |----|
15
口口口口 |①---|
口①②③ |②---|
口口口口 |③---|
口口口口 |----|
16
口③口口 |①---|
口②口口 |②---|
口①口口 |③---|
口口口口 |----|
17
①口口① |①---|
口口口口 |----|
口②②口 |②---|
口口口口 |----|
18
口口口口 |①---|
①口口② |----|
口口口口 |②---|
口口口口 |----|
19
口③口口 |①---|
口口②口 |②---|
口①口口 |③---|
口口口口 |----|
20
口口口口 |①---|
②口口① |----|
口口口口 |②---|
口口口口 |----|
21
口口①口 |①---|
口②口口 |②---|
口口③口 |③---|
口口口口 |----|
22
口口口口 |①---|
②口口① |----|
口口口口 |②---|
口口口口 |----|
23
口口③口 |①---|
口②口口 |②---|
口口①口 |③---|
口口口口 |----|
24
口口口口 |①---|
①口口② |----|
口口口口 |②---|
口口口口 |----|
25
口①①口 |①---|
口口口口 |----|
口口口口
口口口口
26
口口口口 |①---|
口②口口 |----|
口①①口 |②---|
口口口口 |----|
27
口口口口 |①---|
口口①② |----|
口口口口 |②---|
口口口口 |----|
28
口口口口 |①---|
口口口口 |----|
口口②① |②---|
口口口口 |----|
29
口口口口 |①---|
口口口口 |----|
②①口口 |②---|
口口口口 |----|
30
口口口口 |①---|
②①①② |----|
口口口口 |②---|
口口口口 |----|
31
口口口口 |①---|
口口口口 |----|
口①②口 |②---|
口口口口 |----|
32
口口口口 |①---|
口口口口 |----|
口口口口 |②---|
②①①② |----|
33
口口口口 |①---|
口口口口 |----|
口②①口 |②---|
口口口口 |----|
34
口口口口 |①---|
①①口口 |----|
口②②口 |②---|
口口口口 |----|
35
口口口口 |①---|
口口①① |----|
口②②口 |②---|
口口口口 |----|
36
口口口口 |①---|
①口口① |----|
口②②口 |②---|
口口口口 |----|
37
①口口① |①---|
口口口口 |----|
口口口口 |----|
口口口口 |----|
38
口①②口 |①---|
口③④口 |②---|
口口口口 |③---|
口口口口 |④---|
39
口口口口 |①---|
口口口口 |②---|
口①②口 |③---|
口③④口 |④---|
40
口口口口 |①---|
②口口② |----|
①口口① |②---|
口口口口 |----|
41
①①①① |①---|
口口口口 |----|
口口口口 |----|
口口口口 |----|
42
口口口① |①---|
口口口口 |----|
口②②口 |②---|
口口口口 |----|
43
①口口口 |①---|
口口口口 |----|
口②②口 |②---|
口口口口 |----|
44
②口口② |①---|
口口口口 |----|
①口口① |②---|
口口口口 |----|
45
口口口口 |①---|
口口口口 |----|
口①①口 |----|
口口口口 |----|
46
①口口口 |①---|
口口口口 |----|
口②②口 |②---|
口口口口 |----|
47
口口口① |①---|
口口口口 |----|
口②②口 |②---|
口口口口 |----|
48
口口口口 |①---|
口口口口 |----|
口口口口 |----|
口①①口 |----|
49
口口口口 |①---|
口口口口 |----|
口口口口 |----|
①口口① |----|
50
口口口口 |①---|
③③④④ |②---|
①①②② |③---|
口口口口 |④---|
51
①口口① |①---|
口口口口 |----|
口口口口
口口口口
52
口④②口 |①---|
③口口① |②---|
口口口口 |③---|
口口口口 |④---|
53
③口口① |①---|
口④②口 |②---|
口口口口 |③---|
口口口口 |④---|
54
口口口口 |①---|
口口口口 |②---|
口②①口 |③---|
口④③口 |④---|
55
口口口③ |①---|
②口口口 |②---|
口口口① |③---|
口口口口 |----|
56
口②④口 |①---|
①口口③ |②---|
口口口口 |③---|
口口口口 |④---|
57
①口口③ |①---|
口②④口 |②---|
口口口口 |③---|
口口口口 |④---|
58
口口口口 |①---|
口口口口 |②---|
口①②口 |③---|
口③④口 |④---|
59
③口口口 |①---|
口口口② |②---|
①口口口 |③---|
口口口口 |----|
60
②②④④ |①---|
①①③③ |②---|
口口口口 |③---|
口口口口 |④---|
61
①口口③ |①---|
口②④口 |②---|
口口口口 |③---|
口口口口 |④---|
62
口口口口 |①---|
口口口口 |②---|
①①②② |③---|
③③④④ |④---|
63
口口口口 |①---|
口①②口 |----|
口②①口 |②---|
口口口口 |----|
64
口口口① |①---|
口口口② |②---|
口③③口 |③---|
口口口口 |----|
65
①口口口 |①---|
②口口口 |②---|
口③③口 |③---|
口口口口 |----|
66
口口口口 |①---|
②口口① |----|
②口口① |②---|
口口口口 |----|
67
③③③③ |①---|
口口口口 |②---|
②②①① |③---|
口口口口 |----|
68
口③③口 |①---|
①口②口 |②---|
口④④口 |③---|
口口口口 |④---|
69
口②口① |①---|
口口口口 |②---|
④③③④ |③---|
口口口口 |④---|
70
口③③口 |①---|
口②口① |②---|
口④④口 |③---|
口口口口 |④---|
71
①口②口 |①---|
口口口口 |②---|
口③③口 |③---|
口口口口 |----|
72
口③③口 |①---|
①口②口 |②---|
口④④口 |③---|
口口口口 |④---|
73
口②口① |①---|
口口口口 |②---|
④③③④ |③---|
口口口口 |④---|
74
口③③口 |①---|
口②口① |②---|
口④④口 |③---|
口口口口 |④---|
75
口口口口 |①---|
①口口③ |②---|
口口口口 |③---|
口②④口 |④---|
76
口③③口 |①---|
①口口口 |②---|
口④④口 |③---|
口②口口 |④---|
77
①口口① |①---|
②口口② |②---|
③口口③ |③---|
④④④④ |④---|

accuracy: 100%
最終更新:2022年08月10日 01:45