アットウィキロゴ
太陽の滴
CANVAS feat. Quimär

ADVANCED

Level: 7
BPM: 160
Notes: 463

1
口口口口 |----|
口口口口 |----|
口口口口 |----|
口口口口 |----|
2
口口口口 |①---|
③③口口 |②---|
口口口② |③---|
①口口口 |----|
3
口口口口 |①---|
口口口① |②---|
②口口口 |③---|
口口③③ |----|
4
③③口口 |①---|
口口口② |②---|
①口口口 |③---|
口口口口 |----|
5
口口口① |①---|
②口口口 |②---|
口口③③ |③---|
口口口口 |----|
6
口口口口 |①---|
③③口口 |②---|
口口口② |③---|
①④④口 |④---|
7
口口口口 |①---|
口口口① |②---|
②口口口 |③---|
④④③③ |④---|
8
③③口口 |①---|
口口口② |②---|
①④④口 |③---|
口口口口 |④---|
9
口口口① |①---|
②口口口 |②---|
口口口口
口口口口
10
口口③③ |①---|
口②②口 |②---|
①口口① |③---|
口④④口 |④---|
11
③③口口 |①---|
口②②口 |②---|
①口口① |③---|
口④④口 |④---|
12
口口口③ |①---|
口②②③ |②---|
①口口① |③---|
口④④口 |④---|
13
③口口口 |①---|
③②②口 |②---|
①口口① |③---|
口④④口 |④---|
14
口口③口 |①---|
口②②③ |②---|
①口口① |③---|
口④④口 |④---|
15
口③口口 |①---|
③②②口 |②---|
①口口① |③---|
口④④口 |④---|
16
③口口③ |①---|
口②②口 |②---|
①口口① |③---|
口④④口 |④---|
17
口口口口 |--①-|
口①②口 |---②|
口②①口 |----|
口口口口 |----|
18
②口口口 |①---|
口③口口 |②-③-|
①口④口 |④---|
口口口口 |----|
19
口④口① |①---|
口口③口 |②-③-|
口口口② |④---|
口口口口 |----|
20
①口④口 |①---|
口③口口 |②-③-|
②⑤⑤口 |④---|
口口口口 |⑤---|
21
口口口口 |①---|
②②①① |②---|
口口口口 |③---|
口③③口 |----|
22
口口口② |①---|
口口③口 |②-③-|
口④口① |④---|
口口口口 |----|
23
①口④口 |①---|
口③口口 |②-③-|
②口口口 |④---|
口口口口 |----|
24
口④口① |①---|
口口③口 |②-③-|
口⑤⑤② |④---|
口口口口 |⑤---|
25
口口口口 |①---|
①①②② |②---|
口口口口
口口口口
26
①③③① |①---|
口口口口 |②---|
口②④口 |③---|
口口口口 |④---|
27
口口口口 |①---|
①④④① |②---|
③口口② |③---|
口③②口 |④---|
28
①③③① |①---|
口口口口 |②---|
口②④口 |③---|
口口口口 |④---|
29
口口口口 |①---|
③④④③ |②---|
②口口② |③---|
口①①口 |④---|
30
③③①① |①---|
口口口口 |②---|
口②④口 |③---|
口口口口 |④---|
31
口口口口 |①---|
③口口④ |②---|
①③④② |③---|
口①②口 |④---|
32
②①①② |①---|
口口口口 |----|
口③③口 |②---|
口口口口 |③---|
33
口④①口 |①---|
④口口① |②---|
口口口口 |③---|
口③②口 |④---|
34
①③③① |①---|
口口口口 |②---|
口④②口 |③---|
口口口口 |④---|
35
口口口口 |①---|
①④④① |②---|
②口口③ |③---|
口②③口 |④---|
36
①③③① |①---|
口口口口 |②---|
口④②口 |③---|
口口口口 |④---|
37
①口口① |①---|
③口口② |----|
③口口② |②---|
口口口口 |③---|
38
①①③③ |①---|
口口口口 |②---|
口④②口 |③---|
口口口口 |④---|
39
口口口口 |①---|
口②④口 |②---|
口口口口 |③---|
③③①① |④---|
40
口口①① |①---|
②②口口 |②---|
口口③③ |③---|
④④口口 |④---|
41
口口①口 |①---|
口口口① |----|
口口口口 |----|
口口口口 |----|
42
口②口口 |①---|
②口口口 |----|
口口口① |②---|
口口①口 |----|
43
口口②口 |①---|
口口口② |----|
①口口口 |②---|
口①口口 |----|
44
口②口口 |①---|
②口③口 |----|
口③口① |②---|
口口①口 |③---|
45
口口口口 |①---|
口口口口 |----|
口口口① |----|
口口①口 |----|
46
口②口③ |①---|
②口口口 |----|
口口口① |②---|
口口①口 |③---|
47
口口②口 |①---|
③口口② |----|
①口口口 |②---|
口①口口 |③---|
48
口口口口 |①---|
口③④口 |②---|
②口口① |③---|
口口①口 |④---|
49
口④③口 |①---|
口口口② |②---|
口口口① |③---|
口口口口 |④---|
50
口口口口 |①-②-|
①口口② |③-④-|
③⑦⑧④ |⑤-⑥-|
⑤口口⑥ |⑦-⑧-|
51
口①口口 |①---|
①口口口 |----|
口口口口
口口口口
52
口口口① |①-②-|
口⑦②口 |③-④-|
⑥③⑧口 |⑤-⑥-|
口⑤④口 |⑦-⑧-|
53
口口④③ |①-②-|
口⑤②口 |③-④-|
口口⑥① |⑤-⑥-|
口口口口 |----|
54
口口口口 |①-②-|
①口口④ |③---|
②口口⑤ |④-⑤-|
口③⑥口 |⑥---|
55
口口①口 |①---|
③①口③ |②---|
口口②口 |③---|
④②口④ |④---|
56
①口口口 |①-②-|
口②⑦口 |③-④-|
口⑧③⑥ |⑤-⑥-|
口④⑤口 |⑦-⑧-|
57
③④口口 |①-②-|
口②⑤口 |③-④-|
①⑥口口 |⑤-⑥-|
口口口口 |----|
58
口口口口 |①-②-|
④口口① |③---|
⑤口口② |④-⑤-|
口⑥③口 |⑥---|
59
口①口口 |①---|
③口①③ |②---|
③②口③ |③---|
口口②口 |----|
60
口口口① |①-②-|
口⑦②口 |③-④-|
⑥③⑧口 |⑤-⑥-|
口⑤④口 |⑦-⑧-|
61
口口④③ |①-②-|
口⑤②口 |③-④-|
口口⑥① |⑤-⑥-|
口口口口 |----|
62
口口口口 |①-②-|
①口口④ |③---|
②口口⑤ |④-⑤-|
口③⑥口 |⑥---|
63
③口口③ |①---|
③①②③ |②---|
口②①口 |③---|
口口口口 |----|
64
口①口口 |①-②-|
口②口口 |③-④-|
口口③口 |⑤---|
⑤⑤④口 |----|
65
口口①口 |①-②-|
口口②口 |③-④-|
口③口口 |⑤---|
口④⑤⑤ |----|
66
口口口口 |①---|
④②③① |②---|
③①④② |③---|
口口口口 |④---|
67
②②②② |①---|
口口口口 |----|
口口口口 |②---|
口①①口 |----|
68
口口口口 |①---|
③③口口 |②---|
口口口② |③---|
①④④口 |④---|
69
口口口口 |①---|
口口口① |②---|
②口口口 |③---|
④④③③ |④---|
70
③③口口 |①---|
口口口② |②---|
①④④口 |③---|
口口口口 |④---|
71
④④口① |①---|
②口口口 |②---|
口口③③ |③---|
口口口口 |④---|
72
口口口口 |①---|
③③口口 |②---|
口口口② |③---|
①④④口 |④---|
73
口口口口 |①---|
口口口① |②---|
②口口口 |③---|
④④③③ |④---|
74
③③口口 |①---|
口口口② |②---|
①④④口 |③---|
口口口口 |④---|
75
口口③① |①---|
口口③① |②---|
②④口口 |③---|
②④口口 |④---|
76
③①口③ |①---|
口①口口 |②---|
④口②④ |③---|
④口②④ |④---|
77
口③③口 |①---|
③①②③ |②---|
④②①④ |③---|
口④④口 |④---|

accuracy: 100%
最終更新:2022年08月10日 01:55