アットウィキロゴ
太陽の滴
CANVAS feat. Quimär

EXTREME

Level: 9.7
BPM: 160
Notes: 823

1
口口口口 |----|
口口口口 |----|
口口口口 |----|
口口口口 |----|
2
①口①⑤ |①---|
④⑥口口 |②③④-|
①③①⑦ |⑤-⑥-⑦-|
口⑧②口 |⑧---|
3
⑥⑦①口 |①-②③|
口口⑤④ |④⑤⑥⑦|
②③口口 |⑧---|
⑨口⑧口 |⑨---|
4
⑤口口口 |①---|
口⑦口④ |②③④-|
口⑥③① |⑤-⑥-⑦-|
口②⑧口 |⑧---|
5
④⑦③② |①-②③|
④⑦⑥⑤ |④-⑤⑥|
①口口⑧ |⑦-⑧-|
①⑨口⑩ |⑨-⑩-|
6
①口①⑤ |①---|
④⑥口口 |②③④-|
①③①⑦ |⑤-⑥-⑦-|
口⑧②口 |⑧---|
7
⑥⑦①口 |①-②③|
口口⑤④ |④⑤⑥⑦|
②③口口 |⑧---|
⑨口⑧口 |⑨---|
8
⑤口口口 |①---|
口⑦口④ |②③④-|
口⑥③① |⑤-⑥-⑦-|
口②⑧口 |⑧---|
9
口口③② |①-②③|
口口⑤④ |④⑤⑥⑦|
口口⑦⑥
①口口口
10
②⑧口④ |①②--|
口口⑦口 |③--④|
⑤口口⑥ |--⑤-|
③③④① |⑥⑦⑧-|
11
②⑧口④ |①②--|
口口⑦口 |③--④|
⑤口口⑥ |--⑤-|
③③④① |⑥⑦⑧-|
12
②⑧口④ |①②--|
④口⑦口 |③--④|
口口口⑥ |--⑤-|
⑤③③① |⑥⑦⑧-|
13
②口⑥④ |①②--|
④⑦口口 |③--④|
⑧口口口 |--⑤-|
⑤③③① |⑥⑦⑧-|
14
②⑧口④ |①②--|
口口⑦③ |③--④|
⑤口口⑥ |--⑤-|
口③④① |⑥⑦⑧-|
15
②⑧口④ |①②--|
口口⑦③ |③--④|
⑤口口⑥ |--⑤-|
口③④① |⑥⑦⑧-|
16
②⑧口④ |①②--|
④口⑦口 |③--④|
口口口⑥ |--⑤-|
⑤③③① |⑥⑦⑧-|
17
④口②口 |--①②|
口④口④ |-③-④|
口口④口 |----|
口①③口 |----|
18
口⑤口③ |①---|
④口⑦⑥ |②-③-|
口②④口 |④---|
①口口① |⑤-⑥⑦|
19
①口⑥⑤ |①-②③|
口④口口 |④-⑤⑥|
⑦口口口 |⑦---|
口⑧③② |⑧---|
20
口⑦口④ |①---|
④口⑤口 |②-③-|
口②③⑥ |④-⑤-⑥-|
①口⑦① |⑦---|
21
②口①口 |①-②-③-|
⑧③口⑧ |④-⑤-⑥-|
⑤口④口 |⑦---|
口⑥⑦口 |⑧---|
22
口⑤口③ |①---|
④口⑦⑥ |②-③-|
口②④口 |④---|
①口口① |⑤-⑥⑦|
23
①口⑥⑤ |①-②③|
口④口口 |④-⑤⑥|
⑦口口口 |⑦---|
口⑧③② |⑧---|
24
口⑦口④ |①---|
④口⑤口 |②-③-|
口②③⑥ |④-⑤-⑥-|
①口⑦① |⑦---|
25
口口口口 |①---|
②口口② |②---|
口②口口
①①口①
26
①口口① |①---|
口①①口 |--②③|
①口口①
口②③口

口口口口
口口⑦⑥
口⑤口口 |④--⑤|
口口口④ |--⑥⑦|
27
口①口口 |①-②-|
③口口口 |③-④-|
口口②口
口④口口

口⑥口⑤
口⑦口口
口口口口 |--⑤-|
口口口口 |--⑥⑦|
28
口⑦口⑥ |①---|
口口口口 |--②③|
口①③⑤ |④-⑤-|
口④口② |⑥-⑦-|
29
口口③口 |①--②|
口口①② |--③-|
②①口③
口口口口

口口口口
④⑤⑥口
口口口口 |④--⑤|
口④⑤⑥ |--⑥-|
30
口⑤口⑥ |①---|
口口口口 |--②③|
口①③② |④-⑤-|
①④口⑦ |⑥-⑦-|
31
⑤口口口 |①②③④|
①⑥口⑧ |⑤⑥⑦⑧|
口②⑦④
口口③口

口口⑫⑪
⑬口口口
⑨⑭口口 |⑨⑩⑪⑫|
口⑩⑯⑮ |⑬⑭⑮⑯|
32
①①口② |①---|
⑤口口③ |----|
口口口④ |②③④-|
口⑥口口 |⑤-⑥-|
33
③②①⑤ |①-②-|
口④口口 |③④-⑤|
口①②⑤
口口口口

口口口口
⑧口口口
口⑨口口 |----|
口口⑦⑥ |⑥⑦⑧⑨|
34
口口①口 |①---|
口口①② |--②③|
口口③口
口口口口

口口口⑤
口④⑦口
口⑥口口 |④--⑤|
口口口口 |--⑥⑦|
35
④①口口 |①-②-|
口口口口 |③-④-|
口口口口
口②③口

口⑧口⑦
⑧口口口
⑥口⑤口 |----⑤--⑥|
口口口口 |---⑦---⑧|
36
④口③口 |---①|
口④①③ |--②-|
口①⑤口 |③--④|
口②②⑤ |--⑤-|
37
⑥口口⑧ |①---|
②⑦⑨④ |----|
①③⑤口 |②③④⑤|
①口口口 |⑥⑦⑧⑨|
38
口①⑤⑦ |①-②③|
⑨口⑧口 |-④-⑤|
口⑩口② |-⑥-⑦|
④⑥③口 |⑧⑨⑩-|
39
⑧口口口 |①-②③|
口⑦口② |--④⑤|
口口③口 |⑥-⑦⑧|
④⑤⑥① |----|
40
⑬⑦⑮⑤ |①②③④|
⑧⑭⑥⑯ |⑤⑥⑦⑧|
③④②① |⑨⑩⑪⑫|
⑨⑩⑫⑪ |⑬⑭⑮⑯|
41
口⑤口① |①---|
口口④口 |----|
口③①口 |----|
口口②口 |②③④⑤|
42
口⑥⑤① |①-②-|
②⑤⑦③ |③-④-|
④口⑤① |⑤---|
口口口③ |--⑥⑦|
43
⑤⑨⑤① |①-②-|
口口⑧③ |③-④-|
②⑦⑤① |⑤---|
④口⑥③ |⑥⑦⑧⑨|
44
口口口① |①-②-|
②口口③ |③-④-|
④口口①
口口口③

⑤口⑤口
口⑥口口
口⑦口⑦ |⑤-⑥-|
口口⑧口 |⑦-⑧-|
45
③⑦口② |①---|
①口⑥口 |②---|
口⑤口口 |③---|
②①④③ |④⑤⑥⑦|
46
口⑨⑤① |①-②-|
②⑤⑩③ |③-④-|
④口⑤① |⑤-⑥⑦|
⑥⑦⑧③ |⑧-⑨⑩|
47
口口口① |①-②-|
口口口③ |③-④-|
②口口①
④口口③

⑤⑥⑤口
口⑦口口
口⑧⑤⑨ |⑤-⑥⑦|
口口⑩口 |⑧-⑨⑩|
48
③口口口 |①-②-|
②④⑥② |--③④|
口⑦⑤口 |⑤---|
②①口② |--⑥⑦|
49
④⑦⑧口 |①---|
①③口① |--②③|
⑥口②⑤ |④-⑤-|
①口口① |⑥-⑦⑧|
50
口⑪⑫口 |①-②-|
⑩⑤④① |③-④-|
⑨⑥口口 |⑤⑥⑦⑧|
⑧⑦③② |⑨⑩⑪⑫|
51
②口口口 |①---|
口③口① |②③④⑤|
口口④口
口⑤口口
52
⑩⑤④口 |①-②③|
②⑪⑥⑧ |-④⑤⑥|
⑦③⑨① |⑦-⑧⑨|
口口⑫① |-⑩⑪⑫|
53
⑧口口⑪ |①-②③|
②口⑫⑦ |-④⑤⑥|
⑩③⑥① |⑦⑧⑨⑩|
④⑤口⑨ |--⑪⑫|
54
口①口口 |①-②③|
口⑥口④ |-④⑤⑥|
口②⑤口
口口③口

口口⑨⑧
口口⑫口
⑦⑪口口 |⑦-⑧⑨|
⑩口口口 |-⑩⑪⑫|
55
口口口口 |①-②③|
口⑥口④ |-④⑤⑥|
口口⑤①
口②③口

口⑧⑦口
口口口口
口口口口 |⑦⑧⑨⑩|
⑩⑪⑫⑨ |--⑪⑫|
56
①④⑤⑩ |①-②③|
⑧⑥⑪② |-④⑤⑥|
①⑨③⑦ |⑦-⑧⑨|
口⑫口口 |-⑩⑪⑫|
57
⑪口口⑧ |①-②③|
⑦⑫口② |-④⑤⑥|
①⑥③⑩ |⑦⑧⑨⑩|
⑨口⑤④ |--⑪⑫|
58
口口①⑧ |①-②③|
④⑫⑥⑨ |-④⑤⑥|
口⑤⑪⑦ |⑦-⑧⑨|
口③②⑩ |-⑩⑪⑫|
59
①③②口 |①-②③|
口口⑥口 |-④⑤⑥|
口⑤口口
④口口口

⑨口口⑦
口⑩口口
⑧口⑪口 |⑦-⑧-|
口⑫口口 |⑨⑩⑪⑫|
60
⑩⑤④口 |①-②③|
②⑪⑥⑧ |-④⑤⑥|
⑦③⑨① |⑦-⑧⑨|
口口⑫① |-⑩⑪⑫|
61
⑧口口⑪ |①-②③|
②口⑫⑦ |-④⑤⑥|
⑩③⑥① |⑦⑧⑨⑩|
④⑤口⑨ |--⑪⑫|
62
口①口口 |①-②③|
口⑥口④ |-④⑤⑥|
口②⑤口
口口③口

口口⑨⑧
口口⑫口
⑦⑪口口 |⑦-⑧⑨|
⑩口口口 |-⑩⑪⑫|
63
⑤⑦⑨口 |①---|
⑥④口⑧ |②③④⑤|
口口③① |⑥⑦⑧⑨|
口①①② |----|
64
口口口口 |①-②-|
③④①口 |③④⑤⑥|
①口③②
口②⑥⑤

口口口⑧
口口口⑨
口⑦口⑩ |⑦---|
⑦口口口 |⑧⑨⑩-|
65
①⑥⑤口 |①-②-|
②口①口 |③④⑤⑥|
③口②口
口④③口

⑫口口⑦
⑭⑧⑪⑨
口⑩⑬口 |⑦⑧⑨⑩|
口口口口 |⑪⑫⑬⑭|
66
口④⑤口 |①-②③|
口⑥口口 |-④⑤⑥|
①口口②
口口③口

⑫口口⑦
⑫口⑨⑦
⑩⑧⑨⑪ |⑦-⑧-⑨-|
⑩⑧口⑪ |⑩-⑪-⑫-|
67
口②⑦④ |①-②③|
⑧③⑤⑨ |-④⑤⑥|
口⑥⑦口 |⑦-⑧⑨|
⑨口①⑧ |----|
68
①⑤口⑤ |①---|
④⑥口口 |②③④-|
①③口⑦ |⑤-⑥-⑦-|
口⑧②⑧ |⑧---|
69
⑥口①口 |①-②③|
⑨⑦⑤④ |④⑤⑥⑦|
②③①口 |⑧---|
⑨⑧⑧口 |⑨---|
70
⑤①口口 |①---|
口⑦口④ |②③④-|
口⑥③① |⑤-⑥-⑦-|
口②⑧口 |⑧---|
71
④口③② |①-②③|
④口⑥⑤ |④-⑤⑥|
①口口口
①口口口

口⑦⑫口
口⑦口口
⑪口⑩⑨ |⑦-⑧⑨|
口口口⑧ |-⑩⑪⑫|
72
①⑤口⑤ |①---|
④⑥口口 |②③④-|
口③口⑦ |⑤-⑥-⑦-|
口⑧②⑧ |⑧---|
73
⑥口①口 |①-②③|
⑨⑦⑤④ |④⑤⑥⑦|
②③①口 |⑧---|
⑨⑧⑧口 |⑨---|
74
⑤①口口 |①---|
口⑦口④ |②③④-|
口⑥③① |⑤-⑥-⑦-|
口②⑧口 |⑧---|
75
⑨⑩③② |①-②③|
⑪⑫⑤④ |④⑤⑥⑦|
⑬⑭⑦⑥ |⑧-⑨⑩|
①□□⑧ |⑪⑫⑬⑭|
76
口口③② |①-②③|
口口⑤④ |④⑤⑥⑦|
口口⑦⑥
①口口口

口口口口
⑧⑧口口
⑨⑨口口 |--⑧-⑨-|
⑩⑩⑩⑩ |⑩---|
77
①③②口 |①-②③|
口⑤④口 |④⑤⑥⑦|
口⑦⑥口
口口口口

⑫口口⑧
⑨口口⑩
⑫口口⑧ |⑧⑨⑩⑪|
⑨⑪⑪⑩ |⑫---|

accuracy: 100%
最終更新:2022年08月10日 03:23