アットウィキロゴ
激闘保安官!DEMPA撲滅大作戦
ARM × かたほとり ft. ななひら

EXTREME

Level: 9.5
BPM: 142
Notes: 709

1
口口口口 |----|
口口口口 |----|
口口口口 |----|
口口口口 |----|
2
⑧口口口 |①-②-|
⑨口⑥⑤ |③-④-|
口⑦④③ |⑤--⑥-⑦|
口口②① |--⑧⑨--|
3
口口口⑧ |①-②-|
⑤⑥口⑨ |③-④-|
③④⑦口 |⑤--⑥-⑦|
①②口口 |--⑧⑨--|
4
⑧口口口 |①-②-|
⑨口⑥⑤ |③-④-|
口⑦④③ |⑤--⑥-⑦|
口口②① |--⑧⑨--|
5
口口口⑧ |①-②-|
⑤⑥口⑨ |③-④-|
③④⑦口 |⑤--⑥-⑦|
①②口口 |--⑧⑨--|
6
口口口口 |①---|
口②口口 |--②-|
口①口① |③---|
①口①口 |④---|

口口口口
口口③口
口口口口
口口④口
7
口口口口 |①---|
口口②口 |--②-|
①口①口 |----|
口①口① |③---|

口口口口
口口口口
口口口口
口③口口
8
口口口口 |①---|
口②口口 |--②-|
口①口① |③---|
①口①口 |④---|

口口口口
口口③口
口口口口
口口④口
9
口口口口 |①---|
口口口口 |----|
①口①口 |②---|
口①口① |③---|

口口口口
口口口口
口②口口
口口口③
10
①口口② |①-②-|
口①口④ |③-④-|
③口口口 |⑤⑥⑦⑧|
口③口口 |--⑨-|

口⑧口口
⑤口口口
口⑥口⑦
口⑨口⑨
11
①口口② |①-②-|
③①口④ |③-④-|
口③口口 |⑤⑥⑦⑧|
口口口口 |--⑨-|

口⑨⑨口
口⑧口口
口口口⑦
⑤⑥口⑨
12
口口口口 |-①②③|
④⑥③⑤ |④⑤⑥⑦|
②口①⑦ |⑧-⑨-|
口口口口 |⑩-⑪-|

口口⑨口
口口口口
⑪⑧⑩口
口口口口
13
①②口口 |①---|
口口①口 |②--③|
口③⑤② |----|
④口③口 |④-⑤-|
14
①口口② |①-②-|
口①口④ |③-④-|
③口口口 |⑤⑥⑦⑧|
口③口口 |-⑨⑩-|

口⑧口口
⑤口口口
口⑥口⑦
⑨⑩口⑩
15
①口口② |①-②-|
③①口④ |③-④-|
口③口口 |⑤⑥⑦⑧|
口口口口 |--⑨-|

口⑨⑨口
口⑧口口
口口口⑦
⑤⑥口⑨
16
⑦口⑨① |-①②③|
⑩⑧②⑤ |④⑤⑥⑦|
口④⑥⑩ |⑧--⑨|
③⑨口口 |-⑩--|
17
④②⑤① |①--②|
⑥口口③ |-③--|
③口口⑥ |④--⑤|
①⑤②④ |-⑥--|
18
④②口① |①--②|
口④口③ |-③--|
③口④口 |④---|
①口②④ |----|
19
⑦⑤③① |①-②-|
口⑧⑤口 |③-④-|
②⑥③口 |⑤-⑥-|
口④⑦口 |⑦--⑧|
20
⑧⑤③① |①-②-|
口⑥⑤⑦ |③-④-|
口③⑦② |⑤⑥-⑦|
口口④口 |⑧---|
21
口口③① |①-②-|
口口口口 |③-④-|
口①口② |⑤-⑥-|
口③口④ |⑦---|

⑦⑤口口
口口⑤口
⑥口口⑦
口口⑦口
22
口口③① |①-②-|
口①③口 |③-④-|
口口口口 |⑤-⑥--⑦|
口②④口 |--⑧---|

⑦⑧口⑧
⑦口口⑥
⑤口⑤⑥
口口口口
23
口口①口 |①-②-|
口①口口 |③-④⑤|
③口⑤④ |⑥-⑦-|
口口②口 |⑧---|

口口口口
⑥⑦⑧口
口口口口
⑥⑦⑧口
24
口①口② |①-②-|
口⑨⑧⑦ |③④⑤⑥|
⑤⑥④③ |⑦-⑧-|
口⑨⑧⑦ |⑨---|
25
①②⑦⑥ |①②③④|
⑤口口⑩ |⑤---|
③④⑨⑧ |⑥⑦⑧⑨|
口口口口 |⑩---|
26
口⑩⑨⑬ |①②③④|
⑦口⑬⑧ |⑤⑥⑦⑧|
⑤⑫⑪⑥ |⑨⑩⑪⑫|
①③④② |⑬---|
27
口口口口 |①---|
口②口口 |--②-|
①口口① |③---|
口①①口 |④---|

口口口口
口口③口
口口口口
口口④口
28
口口口口 |①---|
口口②口 |--②-|
①口①口 |----|
口①口① |③---|

口口口口
口口口口
口口口口
口③口口
29
口口口口 |①---|
口②口口 |--②-|
口①口① |③---|
①口①口 |④---|

口口口口
口口③口
口口口口
口口④口
30
口口口② |①---|
口口②口 |--②-|
①②①口 |--③-|
②①口① |----|

③口口口
口③口口
口口③口
口口口③
31
③口③口 |①---|
①②①② |----|
③口③口 |②---|
①②①② |③---|
32
口①⑥① |①---|
口口①③ |----|
口①④① |②-③④|
②⑤口② |⑤-⑥-|
33
①口口② |①--②|
⑤①②口 |--③-|
口口口口 |④---|
④③③④ |--⑤-|
34
⑦④口⑤ |①---|
口口⑤① |②-③-④-|
口②口③ |⑤---|
口口口⑥ |⑥-⑦-|
35
⑩⑪⑫口 |①②③-|
⑦⑧⑨口 |④⑤⑥-|
④⑤⑥口 |⑦⑧⑨-|
①②③口 |⑩⑪⑫-|
36
⑩⑪⑫口 |①②③-|
⑦⑧⑨口 |④⑤⑥-|
④⑤⑥口 |⑦⑧⑨-|
①②③口 |⑩⑪⑫-|
37
⑩⑪⑫口 |①②③-|
⑦⑧⑨口 |④⑤⑥-|
④⑤⑥口 |⑦⑧⑨-|
①②③口 |⑩⑪⑫-|
38
④口口④ |①---②-|
②口口② |----|
口口口口 |③---|
③①①③ |④---|
39
口①①口 |①---|
口口口口 |----|
口口口口 |----|
口∧∧口 |----|
40
口口口口 |----|
口口口口 |----|
口口口口 |----|
口口口口 |----|
41
口①①口 |①---|
口①①口 |----|
口①①口 |----|
口①①口 |----|
42
口口口口 |----|
口口口口 |----|
口口口口 |----|
口口口口 |----|
43
①③⑤② |①--②|
⑧⑥口④ |--③-|
③口⑦口 |--④-|
②⑧④① |⑤⑥⑦⑧|
44
⑥④④⑤ |--①-|
⑤⑦①⑥ |②③-④|
口②⑦口 |--⑤-|
口口③① |⑥-⑦-|
45
口口口口 |--①-|
口口③口 |②③--|
口口口① |④-⑤⑥|
②口①① |--⑦-|

⑥⑦⑦⑦
④口口⑦
④④⑤⑦
口口口口
46
口口口口 |----|
③口口口 |----|
口口口② |①--②|
①口口口 |--③-|
47
⑤⑦口① |①-②-|
⑦②⑥③ |③-④-|
口⑤①口 |⑤-⑥⑦|
⑧⑧口④ |--⑧-|
48
⑤口⑤④ |①-②③|
口④④③ |--④-|
②⑤③① |⑤---|
口⑥①口 |--⑥-|
49
③口口口 |①-②-|
口④口① |③-④-|
③口②口 |⑤-⑥⑦|
口口口① |--⑧-|

口⑤口⑤
⑦口⑥⑧
口口口口
口⑦⑧口
50
⑤⑤⑤⑤ |①-②-|
口③④口 |③④-⑤|
③①②④ |-⑥--|
②口口① |⑦-⑧-|

口口口口
⑧口口⑦
口口口口
⑦⑥⑥⑧
51
⑤②③⑥ |①--②|
口①④口 |--③-|
①④①④ |④--⑤|
⑥③②⑤ |--⑥-|
52
口②②口 |①---|
口①口② |②---|
①口①② |③---|
口①口口 |---④|

口口口口
③口③口
口③口④
③口③④
53
①口④⑤ |-①-②|
③①⑤口 |③-④⑤|
口③口口 |-⑥-⑦|
口口②口 |⑧-⑨⑩|

⑧口口口
口⑧口口
口口⑦⑩
⑥口口⑨
54
③①②② |①---|
①⑤④② |②---|
②④⑤口 |③--④|
②②口③ |--⑤-|
55
口②口口 |①---|
②口口① |②-③-|
①口口② |④-⑤⑥|
③口②口 |--⑦-|

口口⑥④
口⑤口⑥
口口④口
口口⑦⑦
56
④⑤口⑤ |①-②③|
③④④口 |--④-|
①③⑤② |⑤---|
口①⑥口 |--⑥-|
57
口口口③ |①-②-|
①口④口 |③-④-|
口②口③ |⑤-⑥⑦|
①口口口 |--⑧-|

⑤口⑤口
⑧⑥口⑦
口口口口
口⑧⑦口
58
⑤⑤⑤⑤ |①-②-|
⑦④③⑥ |③④-⑤|
④②①③ |---⑥|
①⑥⑦② |-⑦--|
59
④⑥口② |①--②|
口②④③ |--③-|
④③①口 |④-⑤-|
①口⑤③ |⑥---|
60
口口②口 |①--②|
②口口口 |--③-|
口③③① |④---|
③①口③ |⑤---|

④口口⑤
口④⑤口
口口口口
口⑤④口
61
⑤①①口 |①-②-|
③⑤口④ |③④-⑤|
③口④② |⑥-⑦-⑧-|
口口口② |⑨---⑩----⑪--|

口口口⑥
口口⑦口
⑪⑧口口
⑨⑪口⑩
62
④②③④ |-①-②|
③口口② |③-④-|
口口口① |⑤-⑥-|
口口①口 |⑦⑧-⑨|

口⑨⑨口
⑨⑤⑥⑨
⑧⑥⑤⑦
⑥⑧⑦⑤
63
②口口① |----|
口口口口 |①---|
口口口口 |----|
②口口① |②---|
64
③口口③ |①--②|
②口③② |--③-|
①②口① |④-⑤-|
口口①口 |⑥⑦⑧-|

口口④口
口口口口
口⑧⑦⑥
口⑤口口
65
口口口③ |①-②-|
②口④⑧ |③④-⑤|
口⑦口口 |--⑥-|
⑤口①⑥ |⑦-⑧-|
66
⑤口口③ |①-②-|
②口④口 |③④-⑤|
⑤口口口 |--⑥-|
口口①口 |⑦-⑧-|

口⑦⑦口
口口口⑥
口口口口
口⑧⑧⑥
67
口口口口 |----|
①口口< |①---|
①口口< |----|
口口口口 |----|
68
①口口口 |----|
①口口口 |----|
①口口口 |----|
口口口口 |---①|
69
口口口口 |①②--|
口①口口 |----|
口②②口 |----|
口口口口 |----|

accuracy: 99.5%
最終更新:2024年11月18日 20:18