アットウィキロゴ
Underground Astronomy
D.watt (IOSYS)

BASIC

Level: 3
BPM: 155
Notes: 207

1
口口口口 |----|
口口口口 |----|
口口口口 |----|
口口口口 |----|
2
口口口① |①---|
口口口口 |----|
口口口口 |----|
口口口口 |----|
3
口口①口 |①---|
口口口口 |----|
口口口口 |----|
口口口口 |----|
4
口①口口 |①---|
口口口口 |----|
口口口口 |----|
口口口口 |----|
5
①口口口 |①---|
口口口口 |----|
口口口口 |----|
口口口口 |----|
6
口口口口 |①---|
①口口口 |----|
口口口口 |----|
口口口口 |----|
7
口口口口 |①---|
口①口口 |----|
口口口口 |----|
口口口口 |----|
8
口口口口 |①---|
口口①口 |----|
口口口口 |----|
口口口口 |----|
9
口口口口 |①---|
口口口① |----|
口口口口 |----|
口口口口 |----|
10
口口口口 |①---|
口口②口 |----|
口口①口 |②---|
口口口口 |----|
11
口口口口 |①---|
口口②① |----|
口口口口 |②---|
口口口口 |----|
12
口口口口 |①---|
口②口口 |----|
口①口口 |②---|
口口口口 |----|
13
口口口口 |①---|
①②口口 |----|
口口口口 |②---|
口口口口 |----|
14
口①②口 |①---|
口口口口 |----|
口口口口 |②---|
口口口口 |----|
15
口口口口 |①---|
口②①口 |----|
口口口口 |②---|
口口口口 |----|
16
口口口口 |①---|
口口口口 |----|
口①②口 |②---|
口口口口 |----|
17
口口口口 |----|
口口口口 |----|
口口口口 |----|
口口口口 |----|
18
口口口口 |①---|
口口口① |----|
口口口② |②---|
口口口口 |----|
19
口口口口 |①---|
口口口口 |----|
口②②口 |②---|
口口①口 |----|
20
口口口口 |①---|
①口口口 |----|
②口口口 |②---|
口口口口 |----|
21
口口口口 |①---|
口口口口 |----|
口②②口 |②---|
口①口口 |----|
22
口口口① |①---|
口口口② |----|
口口口口 |②---|
口口口口 |----|
23
③口口③ |①---|
口②②口 |----|
口口①口 |②---|
口口口口 |---③|
24
口口口口 |----|
①口口① |---①|
②口口② |----|
口口口口 |---②|
25
口口口口 |----|
口口口口 |----|
口②口口 |①---|
口口①口 |②---|
26
口口口口 |①---|
①口口口 |----|
②口口口 |②---|
口口口口 |----|
27
口口口口 |①---|
口口口口 |----|
口②②口 |②---|
口①口口 |----|
28
口口口口 |①---|
口口口① |----|
口口口② |②---|
口口口口 |----|
29
口口口口 |①---|
口口口口 |----|
口②②口 |②---|
口口①口 |----|
30
①口口口 |①---|
②口口口 |----|
口口口口 |②---|
口口口口 |----|
31
③口口③ |①---|
口②②口 |----|
口①口口 |②---|
口口口口 |---③|
32
口口口口 |----|
①口口① |---①|
②口口② |----|
口口口口 |---②|
33
口口口口 |----|
口口口口 |----|
口口②口 |①---|
口①口口 |②---|
34
口口口口 |①---|
①口口① |----|
口口口口 |----|
口口口口 |----|
35
口口口口 |①---|
口口口口 |----|
口口②② |②---|
口口①① |----|
36
口口口口 |①---|
①口口① |----|
口口口口 |----|
口口口口 |----|
37
口口口口 |①---|
口口口口 |----|
口口②② |②---|
口口①① |----|
38
口口②口 |①---|
口口①口 |----|
口口口口 |②---|
口口口口 |----|
39
口口口口 |①---|
口口①口 |----|
口②②口 |②---|
口口口口 |----|
40
口口口口 |①---|
口口口口 |----|
口口口① |②---|
口口②口 |----|
41
口口口口 |①---|
口②②口 |----|
口口①口 |②---|
口口口口 |----|
42
口口口口 |①---|
①口口① |----|
口口口口 |----|
口口口口 |----|
43
口口口口 |①---|
口口口口 |----|
②②口口 |②---|
①①口口 |----|
44
口口口口 |①---|
①口口① |----|
口口口口 |----|
口口口口 |----|
45
口口口口 |①---|
口口口口 |----|
②②口口 |②---|
①①口口 |----|
46
口②口口 |①---|
口①口口 |----|
口口口口 |②---|
口口口口 |----|
47
口口口口 |①---|
口①口口 |----|
口②②口 |②---|
口口口口 |----|
48
口口口口 |①---|
口口口口 |----|
①口口口 |②---|
口②口口 |----|
49
③③③③ |①---|
口②②口 |----|
口①口口 |②---|
口口口口 |---③|
50
口口口口 |----|
口口口口 |----|
口口口口 |----|
口口口口 |----|
51
口口口口 |----|
①口口口 |----|
口口口口 |----|
口口口口 |---①|
52
②口③① |----|
口口④口 |①---|
口口口口 |②---|
口口口口 |③--④|
53
口口口口 |----|
口口口口 |①---|
①口口② |②---|
口口口口 |----|
54
口口口口 |①---|
口③口口 |②---|
②④④口 |③---|
口①口口 |④---|
55
口口口口 |①---|
口口③⑤ |②---|
口④④② |③---|
口口①口 |④--⑤|
56
①③口② |----|
口④口口 |①---|
口口口口 |②---|
口口口口 |③--④|
57
口口口口 |----|
口口口口 |①---|
②口口① |②---|
口口口口 |----|
58
口口口口 |①---|
口口③口 |②---|
口④④② |③---|
口口①口 |④---|
59
口口口口 |①---|
⑤③口⑤ |②---|
②④④口 |③---|
口①口口 |④--⑤|
60
口口口口 |----|
口②②口 |----|
①口口① |①---|
口口口口 |---②|
61
口口口口 |----|
口口口口 |----|
口口口口 |①---|
口①①口 |----|
62
口口口口 |①---|
口②③口 |②---|
口①④口 |③---|
口口口口 |④---|
63
口口口口 |①---|
口②口口 |②---|
口①口口
口口口口

口口口口
口口③口
口④④口 |③---|
口口口口 |---④|
64
口口口口 |----|
①②②① |----|
口口口口 |①---|
口口口口 |---②|
65
口口口口 |----|
口口口口 |----|
口口口口 |①---|
②①①② |---②|
66
口口口口 |----|
①口口① |----|
口口口口 |①---|
口口口口 |----|
67
口①口口 |①---|
口口②口 |②---|
⑤③口⑤ |③---|
口口④口 |④--⑤|
68
口③口口 |----|
①②口口 |①---|
口口口口 |②---|
口口口口 |③---|
69
口口③口 |----|
口口②① |①---|
口口口口 |②---|
口口口口 |③---|
70
口口口口 |----|
口口口口 |①---|
①②口口 |②---|
口③口口 |③---|
71
口口口口 |----|
口口口口 |①---|
口口②① |②---|
口口③口 |③---|
72
口口③口 |----|
口口②① |①---|
口口口口 |②---|
口口口口 |③---|
73
口③口口 |----|
①②口口 |①---|
口口口口 |②---|
口口口口 |③---|
74
口口口口 |----|
口口口口 |①---|
口口②① |②---|
口口③口 |③---|
75
口口口口 |----|
口口口口 |①---|
①②口口 |②---|
口③口口 |③---|

accuracy: 100%
最終更新:2022年08月10日 17:37