アットウィキロゴ
Underground Astronomy
D.watt (IOSYS)

ADVANCED

Level: 6
BPM: 155
Notes: 420

1
口口口口 |----|
口口口口 |----|
口口口口 |----|
口口口口 |----|
2
口口口口 |①---|
②②口口 |----|
口口口口 |②---|
①口口口 |----|
3
①口口口 |①---|
口口口口 |----|
②②口口 |②---|
口口口口 |----|
4
口口口口 |①---|
②②口口 |----|
口口口口 |②---|
口①口口 |----|
5
口①口口 |①---|
口口口口 |----|
②②口口 |②---|
口口口口 |----|
6
口口口口 |①---|
口口②② |----|
口口口口 |②---|
口口口① |----|
7
口口口① |①---|
口口口口 |----|
口口②② |②---|
口口口口 |----|
8
口口口口 |①---|
口口②② |----|
口口口口 |②---|
口口①口 |----|
9
口口①口 |①---|
口口口口 |----|
口口②② |②---|
口口口口 |----|
10
口口口口 |①---|
口口口口 |②---|
①②③口 |③---|
①②③口 |----|
11
①②③口 |①---|
①②③口 |②---|
口口口口 |③---|
口口口口 |----|
12
口口口口 |①---|
口口口口 |②---|
口③②① |③---|
口③②① |----|
13
口③②① |①---|
口③②① |②---|
口口口口 |③---|
口口口口 |----|
14
①口口① |①---|
口口口口 |----|
②口口② |②---|
口口口口 |----|
15
口口口口 |①---|
①口口① |----|
口口口口 |②---|
②口口② |----|
16
口④④口 |①---|
口③③口 |②---|
口②②口 |③---|
口①①口 |④---|
17
口口口① |----|
口口②口 |①---|
口③口口 |②---|
口口口口 |③---|
18
口①⑤⑤ |①---|
口④口③ |②---|
口口口口 |③---|
口口②口 |④--⑤|
19
口口口口 |----|
②②口口 |①---|
口口①① |②---|
③③口④ |③--④|
20
①口④口 |----|
口④②② |①---|
③③口口 |②---|
口口口口 |③--④|
21
②④④③ |----|
②口口③ |①---|
口口①口 |②---|
口①口口 |③--④|
22
口口④④ |----|
口③口② |①---|
口口口口 |②---|
口①①口 |③--④|
23
口口口口 |----|
②②④口 |①---|
口④①① |②---|
③③口口 |③--④|
24
口口口口 |----|
口口口口 |---①|
①口口② |----|
口①②口 |---②|
25
口①口口 |----|
口口①口 |----|
口②口口 |①---|
口口②口 |②---|
26
⑤⑤①口 |①---|
③口④口 |②---|
口口口口 |③---|
口②口口 |④--⑤|
27
口口口口 |----|
口口②② |①---|
①①口口 |②---|
④口③③ |③--④|
28
口④口① |----|
②②④口 |①---|
口口③③ |②---|
口口口口 |③--④|
29
③④④② |----|
③口口② |①---|
口①口口 |②---|
口口①口 |③--④|
30
④④口口 |----|
②口③口 |①---|
口口口口 |②---|
口①①口 |③--④|
31
口口口口 |----|
口④②② |①---|
①①④口 |②---|
口口③③ |③--④|
32
口口口口 |----|
口口口口 |---①|
②口口① |----|
口②①口 |---②|
33
口口①口 |----|
口①口口 |----|
口口②口 |①---|
口②口口 |②---|
34
口口口口 |①---|
①口口① |----|
①口口① |②---|
口②②口 |----|
35
②②口① |①---|
口口口① |----|
口口口口 |②---|
口口口口 |----|
36
口口口口 |①---|
①口口① |----|
①口口① |②---|
口②②口 |----|
37
①口②② |①---|
①口口口 |----|
口口口口 |②---|
口口口口 |----|
38
①②口口 |①---|
口③④口 |②---|
口口口口 |③---|
口口口口 |④---|
39
口口口口 |①---|
口口口口 |----|
②口①口 |②---|
②口口口 |----|
40
口口口口 |①---|
口②②口 |----|
口口口口 |②---|
口口①① |----|
41
②口口口 |①---|
口②口口 |----|
口口③口 |②---|
口①①③ |③---|
42
口口口口 |①---|
①口口① |----|
①口口① |②---|
口②②口 |----|
43
①口②② |①---|
①口口口 |----|
口口口口 |②---|
口口口口 |----|
44
口口口口 |①---|
①口口① |----|
①口口① |②---|
口②②口 |----|
45
②②口① |①---|
口口口① |----|
口口口口 |②---|
口口口口 |----|
46
口口②① |①---|
口④③口 |②---|
口口口口 |③---|
口口口口 |④---|
47
口口口口 |①---|
口口口口 |----|
口①口② |②---|
口口口② |----|
48
口口口口 |①---|
口②②口 |----|
口口口口 |②---|
①①口口 |----|
49
口口口口 |①---|
口口口口 |----|
口口口口
口①①口

口口口②
口口②口
口③口口 |②---|
③④④④ |③--④|
50
口口③口 |----|
②④口① |①---|
口口口口 |②---|
口口口口 |③--④|
51
⑤口口口 |--①-|
口⑤口④ |--②-|
口③①口 |③---|
②口口口 |④--⑤|
52
口口口① |----|
②口①口 |①---|
②口口③ |②---|
④④口③ |③--④|
53
③口口③ |----|
口②口口 |①---|
口口①口 |②---|
口口口口 |③---|
54
口④④口 |①---|
口口口① |②---|
③口口口 |③---|
口②②口 |④---|
55
口④④⑤ |①---|
①口⑤口 |②---|
口口口③ |③---|
口②②口 |④--⑤|
56
①口口口 |----|
口①口② |①---|
③口口② |②---|
③口④④ |③--④|
57
③口口③ |----|
口口②口 |①---|
口①口口 |②---|
口口口口 |③---|
58
口④④口 |①---|
①口口③ |②---|
①口口③ |③---|
口②②口 |④---|
59
⑤④④口 |①---|
①⑤口③ |②---|
①口口③ |③---|
口②②口 |④--⑤|
60
口口口① |----|
②口①口 |①---|
②口口③ |②---|
④④口③ |③--④|
61
口口口口 |----|
口口口口 |①---|
口口①口
口口口口

③口口③
口②口口
口④④口 |②---|
口口口口 |③--④|
62
口③口口 |----|
③口口口 |①---|
②口口① |②---|
口②①口 |③---|
63
口口①口 |①---|
口口口① |②---|
口口口②
口口②口

口④④⑤
口口⑤口
③口口口 |③---|
口③口口 |④--⑤|
64
①口口口 |----|
口①口② |①---|
③口口② |②---|
③口④④ |③--④|
65
③口口③ |----|
口口②口 |①---|
口①口口 |②---|
口口口口 |③---|
66
口④④口 |①---|
①口口③ |②---|
①口口③ |③---|
口②②口 |④---|
67
①口口④ |①---|
口①④口 |②---|
⑤②③⑤ |③---|
②口口③ |④--⑤|
68
②口③③ |----|
口口口口 |①---|
口①①口 |②---|
口①①口 |③---|
69
③口④④ |①---|
口口口口 |②---|
口口口口 |③---|
②②口① |④---|
70
③口口口 |①---|
口口口口 |②---|
口④④② |③---|
口①口① |④---|
71
④口口② |①---|
口口口④ |②---|
①③③口 |③---|
口口口口 |④---|
72
③③口② |----|
口口口口 |①---|
口①①口 |②---|
口①①口 |③---|
73
④④口③ |①---|
口口口口 |②---|
口口口口 |③---|
①口②② |④---|
74
口口口③ |①---|
口口口口 |②---|
②④④口 |③---|
①口①口 |④---|
75
②口口④ |①---|
④口口口 |②---|
口③③① |③---|
口口口口 |④---|

accuracy: 100%
最終更新:2022年08月10日 17:53