アットウィキロゴ
Underground Astronomy
D.watt (IOSYS)

EXTREME

Level: 9.8
BPM: 155
Notes: 815

1
口口口口 |----|
口口口口 |----|
口口口口 |----|
口口口口 |----|
2
⑦⑤口④ |①-②-|
③⑨口⑧ |③-④⑤|
口口口② |--⑥-|
①⑥口口 |⑦-⑧⑨|
3
⑦口口⑧ |-①②-|
口口③⑥ |-③④⑤|
口⑤④口 |--⑥-|
②口①口 |⑦-⑧-|
4
口④口口 |①-②-|
④口口⑤ |--③-|
口口③口 |----|
②③口① |④--⑤|
5
⑦口③⑥ |-①②-|
口口口口 |③-④-|
口口口口 |⑤-⑥-|
①④②⑤ |⑦---|
6
⑦⑤口④ |①-②-|
③⑨口⑧ |③-④⑤|
口口口② |--⑥-|
①⑥口口 |⑦-⑧⑨|
7
⑦口口⑧ |-①②-|
口口③⑥ |-③④⑤|
口⑤④口 |--⑥-|
②口①口 |⑦-⑧-|
8
口⑧口口 |①-②-|
⑧⑥⑦⑨ |-③④⑤|
口口③口 |-⑥⑦-|
②⑤④① |⑧--⑨|
9
⑥口③口 |-①②-|
口口口⑥ |③-④-|
⑤口口口 |⑤---|
①④②⑤ |⑥---|
10
④①口② |①---|
③口①口 |②-③-|
⑤①口口 |④-⑤-|
口口①⑥ |⑥---|
11
口口口口 |①---|
③口③口 |②---|
④②④② |③---|
①口①口 |④---|
12
④①口② |①---|
③口口口 |②-③-|
⑤①口口 |④-⑤-|
口口口⑥ |⑥---|
13
口口口⑦ |①-②-|
⑤⑥⑤口 |③-④-|
口③④③ |⑤-⑥-|
①②①⑧ |⑦-⑧-|
14
⑤④口口 |①---|
④⑤③口 |②-③-|
②①⑥口 |④---|
①②口口 |⑤-⑥-|
15
⑤④口口 |①---|
④⑤③口 |②-③-|
②①⑥口 |④---|
①②口口 |⑤-⑥-|
16
⑥④③⑤ |①-②-|
④⑥⑤③ |③-④-|
②⑧⑦① |⑤-⑥-|
⑧②①⑦ |⑦-⑧-|
17
口③②口 |--①②|
④口口① |③④⑤⑥|
⑤口口口
口⑥口口

口⑭⑬口
口⑩⑪⑫
口⑨⑧口 |⑦⑧⑨⑩|
口口⑦口 |⑪⑫⑬⑭|
18
口口口口 |①-②-|
①口口口 |③-④-|
口口口④
③口口②

⑤⑦⑦⑥
⑦⑤⑥口
口⑤⑥口 |⑤---|
口口口口 |⑥--⑦|
19
口口口口 |--①-|
口口口② |②-③-|
口口口口
口③①口

④口口口
⑥④口口
口⑥口⑤ |④-⑤-|
口口⑧⑦ |⑥-⑦⑧|
20
口④④① |--①-|
④口①⑤ |--②-|
口③③⑤ |③---|
③②⑤口 |④--⑤|
21
⑧口⑦口 |-①②-|
口⑥④口 |③④⑤⑥|
①⑤③⑨ |⑦---|
⑦②⑧口 |⑧--⑨|
22
口④口口 |-①②-|
口口口③ |③-④-|
①口口口
口②口口

口口⑥⑥
口口⑤口
⑥口⑤⑦ |⑤---|
⑤⑦⑦口 |⑥--⑦|
23
⑤⑥口口 |-①②③|
口①③口 |④-⑤⑥|
口②④口
口口口口

口口⑦⑩
口⑪⑪口
口口口口 |⑦-⑧-|
⑧口口⑨ |⑨-⑩⑪|
24
⑤④⑤口 |--①-|
③⑩口⑩ |②③④⑤|
②⑦⑧口 |--⑥⑦|
⑥①①⑨ |⑧⑨-⑩|
25
⑩⑥⑦⑫ |--①②|
⑤口⑨⑪ |③④⑤⑥|
④⑧⑦① |⑦⑧⑨⑩|
口③②⑪ |⑪-⑫-|
26
④①⑤口 |--①-|
①⑤④⑤ |②-③-|
⑥④⑥③ |④---|
②⑥口口 |⑤--⑥|
27
口口口⑤ |-①②-|
③⑤口口 |③-④-|
口口⑥① |⑤---|
⑥⑦②④ |⑥--⑦|
28
②口口口 |--①-|
口口口① |②-③-|
口口口口
口口③口

口⑥⑥口
⑤口口⑥
⑤④口④ |④---|
口⑤口④ |⑤--⑥|
29
④口口⑤ |--①-|
口②③口 |②③④⑤|
口口口口
口口①口

口⑧口口
口口口⑦
口⑥⑨⑦ |⑥---|
口⑥⑨口 |⑦-⑧⑨|
30
③③口① |----|
口②口② |①---|
④②口③ |②---|
①口④④ |③--④|
31
口口①口 |-①②-|
口口②口 |③---|
口口口口
口③口口

⑥口口⑤
口⑧⑧口
口口口口 |④-⑤-|
④口口⑦ |⑥-⑦⑧|
32
口⑤④⑤ |--①-|
⑩口⑩③ |②③④⑤|
口⑧⑦② |--⑥⑦|
⑨①①⑥ |⑧⑨-⑩|
33
口⑦⑥⑫ |--①②|
口⑧⑪⑤ |③④⑤⑥|
①⑨⑩④ |⑦⑧⑨⑩|
口②③口 |⑪⑫--|
34
①口④② |①---|
①口④口 |----|
口④③口 |②-③-|
②口①① |④---|
35
②②口口 |--①-|
①口④⑤ |②-③-|
口⑥⑦③ |④-⑤-|
口⑦⑥口 |⑥-⑦-|
36
口口①① |①---|
口口口口 |----|
①口口口
①口口口

②口④口
口口口④
口③④口 |②-③-|
口口口② |④---|
37
口①②口 |----|
④①口口 |①---|
口口口④ |②③--|
③②①⑤ |④⑤--|
38
⑤①口④ |①-②-|
⑧①③⑨ |③-④⑤|
口②①⑥ |--⑥-|
口⑦①口 |⑦-⑧⑨|
39
口①口口 |-①②-|
口③④口 |-③④⑤|
口口⑤口
口口②口

口⑧⑨⑦
口口口口
口⑥口口 |⑥-⑦-|
口口⑩口 |⑧-⑨⑩|
40
②⑦口口 |--①-|
口口口⑥ |②③-④|
口口⑦⑤ |--⑤-|
①④⑥③ |⑥--⑦|
41
口口④② |--①-|
口⑥⑥口 |②--③|
口①⑥⑥ |④⑤--|
③⑤口口 |⑥---|
42
①口④② |①---|
①口④口 |----|
口④③口 |②-③-|
②口①① |④---|
43
②②口口 |--①-|
①口④⑤ |②-③-|
口口⑥③ |④-⑤-|
口⑥口⑥ |⑥---|
44
口口①① |①---|
口口口口 |----|
①口口口
①口口口

②口口④
口口口④
口③④口 |②-③-|
口口口② |④---|
45
口③口④ |①-②-|
⑤②④口 |③---|
④口口⑤ |④---|
①④③⑥ |⑤⑥--|
46
⑤①口④ |①-②-|
⑧①③⑨ |③-④⑤|
口②①⑥ |--⑥-|
口⑦①口 |⑦-⑧⑨|
47
口①口口 |-①②-|
口③④口 |-③④⑤|
口口⑤口
口口②口

口⑧⑨⑦
⑧口口⑨
口⑥口口 |⑥-⑦-|
口口口口 |⑧-⑨-|
48
口⑦口⑦ |①-②-|
⑤①②口 |③-④-|
①③④② |⑤-⑥-|
⑧⑤④⑥ |⑦-⑧-|
49
口口口口 |①-②-|
口①口① |③-④-|
②③口③
口口④口

口口口⑤
⑥口口口
⑦口⑦⑦ |⑤---|
⑦⑦口⑦ |⑥--⑦|
50
口口口③ |----|
②口口① |①---|
口口口口 |②---|
口口④口 |③--④|
51
⑩②⑤⑪ |--①-|
⑨③⑥⑧ |②③④⑤⑥⑦--|
口④⑦⑪ |⑧-⑨-|
①⑩⑪⑪ |⑩--⑪|
52
口①口口 |----|
口①①口 |①---|
口口①口
口口口口

②口②③
口口口②
④③④③ |②---|
④口口口 |③--④|
53
口②②口 |--①-|
口④④口 |②-③-|
口⑥⑥口 |④-⑤-|
⑦⑤③① |⑥-⑦-|
54
③①③① |①-②-|
⑦⑤⑦⑤ |③-④-|
口口口口 |⑤-⑥-|
⑧⑥④② |⑦-⑧-|
55
②口口口 |①-②-|
口④口口 |③-④-|
②口口口
口口③①

口口⑧⑤
⑧口⑥⑧
口⑦口⑤ |⑤-⑥-|
⑦⑤口⑦ |⑦--⑧|
56
①口口口 |--①-|
口③口口 |②-③-|
②口口②
口②②口

口⑥⑥④
口口口⑥
⑦口⑤口 |④-⑤-|
口⑦⑦⑤ |⑥--⑦|
57
①口口⑥ |--①-|
口⑤②⑥ |②-③-|
⑦②⑤口 |④-⑤-|
④⑦⑦③ |⑥--⑦|
58
口⑤⑥口 |--①②|
④口②⑦ |③④⑤⑥|
⑧③⑩① |⑦-⑧⑨|
⑪⑨口口 |⑩-⑪-|
59
①口③⑦ |①②③-|
④②⑥口 |④⑤⑥⑦|
口⑤口口
口口口口

⑬⑭⑮口
⑮⑫口⑧
⑪口⑨口 |⑧⑨⑩⑪|
口⑩口口 |⑫⑬⑭⑮|
60
口口口口 |----|
口口②口 |①②--|
口口②口
①口口口

③口口④
④③口③
口④口⑤ |③---|
⑤⑤口口 |④--⑤|
61
②口②⑦ |--①-|
口④⑦④ |②-③-|
⑥口⑥⑦ |④-⑤-|
口⑤③① |⑥--⑦|
62
②①口口 |--①-|
③口口口 |②-③-|
④口口口 |④-⑤-|
⑤⑥⑦口 |⑥-⑦-|
63
口口口④ |①-②-|
口口口③ |③-④-|
口口口②
口口口①

口⑦⑤口
⑦⑤口⑦
口⑥口口 |⑤---|
⑥口口⑥ |⑥--⑦|
64
①口口口 |--①-|
口③口口 |②-③-|
②口口②
口口②口

口⑤⑤④
口口④⑤
⑥口④口 |④---|
口⑥⑥口 |⑤--⑥|
65
口口口口 |--①②|
②①口口 |③④⑤-|
口③④口
口口口⑤

⑧⑥⑧⑥
口口口⑥
⑦⑧口口 |⑥---|
⑦口⑦口 |⑦--⑧|
66
口口口口 |--①-|
②口②口 |--②-|
口口②口
口口口①

口口口口
口口口口
③⑥口④ |③-④⑤|
口口⑤⑦ |⑥-⑦-|
67
⑦③口① |①②③-|
口⑥②④ |④⑤⑥⑦|
口口⑤口
口口口口

口⑮⑭⑬
⑧口⑫⑮
口⑨口⑪ |⑧⑨⑩⑪|
口口⑩口 |⑫⑬⑭⑮|
68
②口③③ |----|
口口④口 |①---|
①①口口 |②---|
①①⑤口 |③④-⑤|
69
④⑧⑧⑦ |①-②-|
口口口② |③---|
⑤口口⑥ |④⑤-⑥|
③口口① |⑦-⑧-|
70
⑥口⑦④ |①---|
口③④① |②-③-|
口⑥⑤口 |④-⑤-|
①①⑧② |⑥⑦-⑧|
71
口口口口 |①-②-|
口②③口 |③-④-|
口口④口
①口口③

⑧口⑧⑤
⑦⑨口⑥
口⑤口口 |⑤⑥-⑦|
口⑩口口 |⑧---⑨----⑩--|
72
③③口② |----|
口④口口 |①---|
口口①① |②---|
口⑤①① |③④-⑤|
73
⑦⑧⑧④ |①-②-|
②口口口 |③---|
⑥口口⑤ |④⑤-⑥|
①口口③ |⑦-⑧-|
74
④⑦口⑥ |①---|
①④③口 |②-③-|
口⑤⑥口 |④-⑤-|
②⑧①① |⑥⑦-⑧|
75
口口口口 |①-②-|
口③②口 |③-④-|
口④口口
③口口①

⑤⑧口⑧
⑥口⑨⑦
口口⑤口 |⑤⑥-⑦|
口⑩⑩口 |⑧---⑨----⑩--|

accuracy: 100%
最終更新:2022年08月10日 18:59