アットウィキロゴ
Chippin Break
あるふぁ

EXTREME

Level: 9.6
BPM: 190
Notes(hold): 807(32)

0
口口口口 |----|
口口口口 |----|
口口口口 |----|
口口口口 |----|
1
①口⑦① |①---|
口口②口 |②-③-|
⑥③口④ |④-⑤-|
口⑤口口 |⑥-⑦-|
2
口⑧口口 |①-②-|
④口⑥③ |③-④-|
⑦口口口 |⑤-⑥-|
①口②⑤ |⑦-⑧-|
3
口口口① |①---|
口口口口 |----|
口口口∧ |②---|
口口口口 |----|

口口口②
②口口口
口口口口
口口口口
4
口口口口 |①-②-|
口口口② |----|
口①口< |③---|
口口口口 |----|

口③口
口口口口
口③口口
口口口口
5
口口①口 |①---|
①口口< |----|
口口口② |②---|
口口口口 |----|
6
口口口口 |--①-|
②口②口 |----|
口口口口 |②---|
口口①口 |----|
7
口>口① |①---|
口口口口 |----|
口口口口 |②---|
口口口口 |----|

口口口②
②口口口
口口口口
口口口口
8
口∨口口 |①-②-|
口口口② |----|
口①口口 |③---|
口口口口 |----|

口口③口
口口口口
口③∧口
口口口口
9
①口①① |①---|
口口口口 |②-③-|
口口口口 |④-⑤-|
口口口口 |⑥-⑦-|

口口⑦口
口口②口
⑥③口④
口⑤口口
10
口⑧口口 |①-②-|
④口⑥③ |③-④-|
⑦口口口 |⑤-⑥-|
①口②⑤ |⑦-⑧-|
11
口⑧④口 |①-②-|
⑥口口② |③-④-|
⑦口口③ |⑤-⑥-|
口⑤①口 |⑦-⑧-|
12
①口②① |①---|
口③口口 |②---|
口②④口 |③---|
④口口③ |④---|
13
⑧口口④ |①-②-|
口⑦③口 |③-④-|
⑥口口② |⑤-⑥-|
口⑤①口 |⑦-⑧-|
14
口①①口 |①---|
③口②口 |②---|
口②口④ |③---|
口④③口 |④---|
15
口⑧④口 |①-②-|
⑦口口③ |③-④-|
口⑥②口 |⑤-⑥-|
⑤口口① |⑦-⑧-|
16
①口口① |①---|
④②口④ |②---|
口口③口 |③---|
口③②口 |④---|
17
②③④口 |①-②-|
口口⑥口 |--③-|
①口口口 |--④-|
⑤口口口 |⑤-⑥-|
18
③口口① |①---|
口口口口 |②-③-|
口④⑤② |④-⑤-|
口⑥⑦口 |⑥-⑦-|
19
口口③① |①-②-|
口⑦⑥口 |③-④-|
⑧④口⑤ |⑤-⑥-|
②口口口 |⑦-⑧-|
20
口口口口 |①-②-|
口⑧⑥③ |③-④-|
口⑤②口 |⑤-⑥-|
④①⑦口 |⑦-⑧-|
21
口④③② |①-②-|
口⑥口口 |--③-|
口口口① |--④-|
口口口⑤ |⑤-⑥-|
22
①口口③ |①---|
口口口口 |②-③-|
②⑤④口 |④-⑤-|
口⑦⑥口 |⑥-⑦-|
23
口⑥③口 |①-②-|
⑧②⑤口 |③-④-|
④口口① |⑤-⑥-|
口口⑦口 |⑦-⑧-|
24
⑨⑩⑪⑫ |①-②-|
口⑥⑦⑧ |③-④-⑤-|
口③④⑤ |⑥-⑦-⑧-|
口①口② |⑨⑩⑪⑫|
25
口口口口 |①-②-|
②③④口 |--③-|
口口口⑥ |--④-|
①口⑤口 |⑤-⑥-|
26
①口口③ |①---|
口口口口 |②-③-|
②⑤④口 |④-⑤-|
口⑦⑥口 |⑥-⑦-|
27
②口①口 |①-②-|
口口口③ |③-④-|
④口口口 |⑤-⑥-|
⑧⑦⑥⑤ |⑦-⑧-|
28
口⑧⑥③ |①-②-|
口⑤②口 |③-④-|
④①⑦口 |⑤-⑥-|
口口口口 |⑦-⑧-|
29
口口口口 |①-②-|
口④③② |--③-|
⑥口口口 |--④-|
口⑤口① |⑤-⑥-|
30
③口口① |①---|
口口口口 |②-③-|
口④⑤② |④-⑤-|
口⑥⑦口 |⑥-⑦-|
31
口③⑥口 |①-②-|
⑦⑤②口 |③-④-|
①口口④ |⑤-⑥-|
口口⑧口 |⑦-⑧-|
32
⑨⑩⑪⑫ |①-②-|
口⑥⑦⑧ |③-④-⑤-|
口③④⑤ |⑥-⑦-⑧-|
口①口② |⑨⑩⑪⑫|
33
口口口口 |①-②-|
②③④口 |--③-|
口口⑥口 |--④-|
①⑤口口 |⑤-⑥-|
34
①口口口 |①---|
②口口< |②-③-|
口口口口 |④-⑤-|
口口口口 |⑥-⑦-|

口口③口
③口口口
⑤口口④
⑦口口⑥
35
口②口⑤ |①-②-|
④口⑥① |③-④-|
口⑦口口 |⑤-⑥-|
⑧口③口 |⑦-⑧-|
36
口⑧⑥口 |①-②-|
⑦⑤口③ |③-④-|
④口②口 |⑤-⑥-|
口①口口 |⑦-⑧-|
37
口口口口 |①-②-|
口④③② |--③-|
口⑥口口 |--④-|
口口⑤① |⑤-⑥-|
38
口口口口 |①---|
口口口① |②-③-|
口口口口 |④-⑤-|
口口口∧ |⑥-⑦-|

②口口<
口口口②
②口口口
口口口口

③口口口
口⑤④口
口⑦⑥口
口口口口
39
口口口口 |--①-|
口③②① |--②-|
⑤口口口 |--③-|
口口④口 |④-⑤-|
40
口①口口 |①---|
口口③口 |②-③-|
口④⑤口 |④-⑤-|
口⑥⑦② |⑥-⑦-|
41
口口口口 |--①-|
口③②① |--②-|
口口⑤口 |--③-|
④口口口 |④-⑤-|
42
①③③① |①---|
②口口口 |②-③-|
⑤口口④ |④-⑤-|
⑦口口⑥ |⑥-⑦-|
43
口口口口 |①-②-|
②③④⑥ |--③-|
口①①口 |--④-|
口口⑤口 |⑤-⑥-|
44
①口口< |①---|
口口口口 |②③④⑤|
口口口口 |⑥-⑦-|
口口口口 |⑧-⑨-|

②口口口
口⑧⑥口
⑤④③②
口⑨⑦口
45
口②口⑤ |①-②-|
④口⑥① |③-④-|
口⑦③口 |⑤-⑥-|
⑧口口口 |⑦-⑧-|
46
口口③口 |①-②-|
口②口⑥ |③-④-|
①口⑦⑤ |⑤-⑥-|
口⑧④口 |⑦-⑧-|
47
⑦口④① |①-②-|
口⑤②口 |③-④-|
⑥③口口 |⑤-⑥-|
口口口⑧ |⑦-⑧-|
48
口口口口 |①---|
口口① |②③④⑤|
口口口① |⑥---|
口口口口 |----|

口⑥口口
⑥口口②
口②③口
口④⑤口
49
口口①口 |①---|
口⑦②口 |②-③-|
⑥③口① |④-⑤-|
⑤口口④ |⑥-⑦-|
50
②①②① |①---|
口⑤③口 |②---|
口②①口 |③-④-|
⑥口口④ |⑤-⑥-|
51
④<>③ |①-②-|
⑧⑦< |③-④-|
②<>① |⑤-⑥-|
⑥⑤< |⑦-⑧-|

⑤口口④
口口⑧口
③口口②
口⑦⑥口
52
⑧⑦⑥⑤ |①②③④|
口①口口 |⑤⑥⑦⑧|
④③②① |⑨⑩⑪⑫|
口口口口 |⑬⑭⑮⑯|

口口口口
⑫⑯⑭⑩
口口口口
⑪⑮⑬⑨
53
口口②口 |①---|
口⑦口口 |②-③-|
⑥③①① |④-⑤-|
⑤口口④ |⑥-⑦-|
54
②①②① |①---|
口⑤③口 |②---|
口②①口 |③-④-|
⑥口口④ |⑤-⑥-|
55
口口⑥口 |①-②-|
④⑦口⑤ |③-④-|
口口口② |⑤-⑥-|
⑧③①口 |⑦-⑧-|
56
③②口① |①-②-|
⑦⑥④④ |③-④-|
③②①口 |⑤-⑥-|
⑦⑥⑤⑤ |⑦---|
57
口口①口 |①---|
口⑦②口 |②-③-|
⑥③口① |④-⑤-|
⑤口口④ |⑥-⑦-|
58
②①②① |①---|
口⑤③口 |②---|
口②①口 |③-④-|
⑥口口④ |⑤-⑥-|
59
④<>③ |①-②-|
⑧⑦< |③-④-|
②<>① |⑤-⑥-|
⑥⑤< |⑦-⑧-|

⑤口口④
口口⑧口
③口口②
口⑦⑥口
60
⑧⑦⑥⑤ |①②③④|
口①口口 |⑤⑥⑦⑧|
④③②① |⑨⑩⑪⑫|
口口口口 |⑬⑭⑮⑯|

口口口口
⑫⑯⑭⑩
口口口口
⑪⑮⑬⑨
61
口口②口 |①---|
口⑦口口 |②-③-|
⑥③①① |④-⑤-|
⑤口口④ |⑥-⑦-|
62
②①②① |①---|
口⑤③口 |②---|
口②①口 |③-④-|
⑥口口④ |⑤-⑥-|
63
④④口口 |①---|
⑤口口② |②-③-|
③③⑥⑥ |④---|
口①①口 |⑤-⑥-|
64
⑨⑩②② |--①-|
⑦⑧①① |--②-|
⑤⑥口口 |③④⑤⑥|
③④口口 |⑦⑧⑨⑩|
65
口口口口 |①-②-|
⑤口口① |--③-|
口口口④ |④-⑤-|
③口②⑥ |--⑥-|
66
⑤口口⑥ |①-②-|
口口口口 |③-④-|
①②③④ |--⑤-|
口口口口 |--⑥-|
67
⑯⑮⑭⑬ |①②③④|
⑫⑪⑩⑨ |⑤⑥⑦⑧|
⑤⑥⑦⑧ |⑨⑩⑪⑫|
①②③④ |⑬⑭⑮⑯|
68
⑬⑫⑪⑩ |①②③④|
口⑨⑨口 |⑤⑥⑦⑧|
⑤⑥⑦⑧ |⑨---|
①②③④ |⑩⑪⑫⑬|
69
口口口口 |①---|
③口口⑤ |②-③-|
口口口口 |--④-|
④①①② |⑤---|
70
①口④口 |①-②③|
⑨③口⑧ |④-⑤-|
⑤口②口 |⑥-⑦-|
口⑦⑥口 |⑧-⑨-|
71
口口口⑥ |①-②-|
⑧④⑤口 |③-④-|
口口②口 |⑤-⑥-|
③⑦口① |⑦-⑧-|
72
③②①口 |①-②-|
⑦⑥④④ |③-④-|
③②口① |⑤-⑥-|
⑦⑥⑤⑤ |⑦---|
73
⑤口口① |①-②-|
口口口④ |--③-|
③口②⑥ |④-⑤-|
口口口口 |--⑥-|
74
⑤口口⑥ |①-②-|
①②③④ |③-④-|
口口口口 |--⑤-|
口口口口 |--⑥-|
75
⑬⑭⑮⑯ |①②③④|
⑫⑪⑩⑨ |⑤⑥⑦⑧|
⑤⑥⑦⑧ |⑨⑩⑪⑫|
①②③④ |⑬⑭⑮⑯|
76
⑩⑪⑫⑬ |①②③④|
口⑨⑨口 |⑤⑥⑦⑧|
⑤⑥⑦⑧ |⑨---|
①②③④ |⑩⑪⑫⑬|
77
口⑫口口 |①②③④|
⑫⑨⑩⑪ |⑤⑥⑦⑧|
⑤⑥⑦⑧ |⑨⑩⑪-|
①②③④ |⑫---|
78
③口②④ |①-②③|
⑦⑨⑧⑥ |④-⑤-|
口⑤口口 |⑥-⑦-|
①口口口 |⑧-⑨-|
79
口⑮⑭⑪ |①②③④|
⑩⑬⑫⑨ |⑤⑥⑦⑧|
⑧⑦⑥⑤ |⑨⑩⑪-|
④③②① |⑫⑬⑭⑮|
80
⑫⑯⑭⑩ |①②③④|
⑪⑮⑬⑨ |⑤⑥⑦⑧|
⑧⑦⑥⑤ |⑨⑩⑪⑫|
④③②① |⑬⑭⑮⑯|
81
口口口口 |①-②-|
⑤口口口 |--③-|
口口口④ |④-⑤-|
③②⑥① |--⑥-|
82
⑤口口⑥ |①-②-|
口口口口 |③-④-|
①②③④ |--⑤-|
口口口口 |--⑥-|
83
⑬⑭⑮⑯ |①②③④|
⑫⑪⑩⑨ |⑤⑥⑦⑧|
⑧⑦⑥⑤ |⑨⑩⑪⑫|
①②③④ |⑬⑭⑮⑯|
84
④⑤⑥口 |--①-|
口③③口 |--②-|
口②②口 |③-④⑤|
①口口① |⑥---|
85
口口口口 |①---|
③口口⑤ |②-③-|
口口口口 |--④-|
④①①② |⑤---|
86
①口④口 |①-②③|
⑨③口⑧ |④-⑤-|
⑤口②口 |⑥-⑦-|
口⑦⑥口 |⑧-⑨-|
87
口①口口 |①---|
口②口口 |②---|
②口口① |③-④-|
口口口口 |⑤-⑥-|

口⑥⑥③
口口③口
口口口口
④④⑤⑤
88
⑩⑭⑯⑫ |①②③④|
⑤⑥⑦⑧ |⑤⑥⑦⑧|
④③②① |⑨⑩⑪⑫|
⑨⑬⑮⑪ |⑬⑭⑮⑯|
89
口口口口 |①---|
口口口口 |----|
口①口 |----|
口口口口 |②---|

口口口口
口②<口
口口②口
口口口口
90
口口口口 |----|
口①口① |①---|
口口口口 |----|
口口口∧ |----|
91
口口①口 |①---|
①④口① |②---|
②③口口 |③---|
口口∧口 |④---|
92
⑥②①⑦ |①-②③|
①⑩⑬⑤ |④-⑤-|
⑧⑪⑭⑨ |⑥⑦⑧⑨|
④⑫⑮③ |⑩⑪⑫⑬⑭⑮|
最終更新:2022年06月01日 05:33