アットウィキロゴ
Laughin' Muffin
Gowrock

BASIC

Level: 3
BPM: 182
Notes: 342

1
口口口口 |----|
口口口口 |----|
口口口口 |----|
口口口口 |----|
2
口口口口 |①---|
口口①口 |----|
口②口口 |②---|
口口口口 |----|
3
口口口口 |①---|
口①口口 |----|
口口②口 |②---|
口口口口 |----|
4
口②口口 |①---|
①口口口 |----|
口口口口 |②---|
口口口口 |----|
5
口口口口 |①---|
口口①口 |----|
口口口口 |----|
口口口口 |----|
6
口口口口 |①---|
口①口口 |----|
口口②口 |②---|
口口口口 |----|
7
口口口口 |①---|
口口①口 |----|
口②口口 |②---|
口口口口 |----|
8
口口口口 |①---|
①②口口 |----|
口口口口 |②---|
口口口口 |----|
9
口口口口 |①---|
口口口口 |----|
口口①口 |----|
口口口口 |----|
10
口口口口 |①---|
口④②口 |②---|
口口口口 |③---|
口①③口 |④---|
11
口口口口 |①---|
④口口② |②---|
口口口口 |③---|
①口口③ |④---|
12
口④②口 |①---|
口口口口 |②---|
口①③口 |③---|
口口口口 |④---|
13
④口口② |①---|
口口口口 |②---|
①口口③ |③---|
口口口口 |④---|
14
口口口口 |①---|
①②③④ |②---|
口口口口 |③---|
口口口口 |④---|
15
口口口口 |①---|
口口口口 |②---|
④③②① |③---|
口口口口 |④---|
16
口口口口 |①---|
口口口口 |②---|
口④③口 |③---|
口②①口 |④---|
17
①②③口 |①---|
口④④口 |②---|
口④④口 |③---|
口口口口 |④---|
18
口口口口 |①---|
口口口口 |②---|
③口口④ |③---|
①口口② |④---|
19
口口口口 |①---|
口③④口 |②---|
口①②口 |③---|
口口口口 |④---|
20
①口口② |①---|
③口口④ |②---|
口口口口 |③---|
口口口口 |④---|
21
口口口口 |①---|
口口口口 |②---|
①②③④ |③---|
口口口口 |④---|
22
口口口口 |①---|
口口口口 |②---|
③口口④ |③---|
①口口② |④---|
23
口①②口 |①---|
口③④口 |②---|
口口口口 |③---|
口口口口 |④---|
24
口口口口 |①---|
口口口口 |----|
口②②口 |②---|
口①①口 |----|
25
口⑤口口 |①---|
①④口② |②---|
口③口口 |③-④-|
口口口口 |⑤---|
26
口口口口 |①---|
口口口口 |②---|
④口口③ |③---|
②口口① |④---|
27
口口口口 |①---|
口④③口 |②---|
口口口口 |③---|
口②①口 |④---|
28
②口口① |①---|
口口口口 |②---|
④口口③ |③---|
口口口口 |④---|
29
口口口口 |①---|
④③②① |②---|
口口口口 |③---|
口口口口 |④---|
30
口口口口 |①---|
口口口口 |②---|
口④③口 |③---|
口②①口 |④---|
31
口④③口 |①---|
口②①口 |②---|
口口口口 |③---|
口口口口 |④---|
32
口口口口 |①---|
口口口口 |----|
①口口① |②---|
②口口② |----|
33
口口口口 |①---|
①②③口 |②---|
口口口口 |③---|
口口口口 |----|
34
口口口口 |①---|
口口口口 |②---|
口口口口 |③---|
①②③④ |④---|
35
口口口口 |①---|
口口口口 |②---|
①②③④ |③---|
口口口口 |④---|
36
口口口口 |①---|
①②③④ |②---|
口口口口 |③---|
口口口口 |④---|
37
①②③④ |①---|
口口口口 |②---|
口口口口 |③---|
口口口口 |④---|
38
口口口口 |①---|
口口口口 |②---|
口口口口 |③---|
④③②① |④---|
39
口口口口 |①---|
口口口口 |②---|
④③②① |③---|
口口口口 |④---|
40
口口口口 |①---|
④③②① |②---|
口口口口 |③---|
口口口口 |④---|
41
口口口口 |①---|
口口口口 |②---|
④③②① |③---|
④③②① |④---|
42
④③②① |①---|
口口口口 |②---|
口口口口 |③---|
口口口口 |④---|
43
口口口口 |①---|
①②③④ |②---|
口口口口 |③---|
口口口口 |④---|
44
口口口口 |①---|
口口口口 |②---|
④③②① |③---|
口口口口 |④---|
45
口口口口 |①---|
口口口口 |②---|
口口口口 |③---|
①②③④ |④---|
46
口①②口 |①---|
口③④口 |②---|
口口口口 |③---|
口口口口 |④---|
47
①口口② |①---|
口口口口 |②---|
③口口④ |③---|
口口口口 |④---|
48
口口口口 |①---|
口口口口 |②---|
口③④口 |③---|
口①②口 |④---|
49
口口口口 |①---|
③口口④ |②---|
口口口口 |③---|
①口口② |④---|
50
口①①口 |①---|
口②②口 |----|
口口口口 |②---|
口口口口 |----|
51
口口口口 |①---|
口口口口 |----|
口①①③ |②---|
②口口口 |③---|
52
口口口口 |①---|
口①①口 |----|
口②②口 |②---|
口口口口 |----|
53
口口口口 |①---|
②口口口 |----|
口口口口 |②---|
口①①③ |③---|
54
口口口口 |①---|
口②②口 |----|
口①①口 |②---|
口口口口 |----|
55
口①①口 |①---|
口口口口 |----|
②口口③ |②---|
口口口口 |③---|
56
口口口口 |①---|
口①①口 |----|
口①①口 |----|
口口口口 |----|
57
口口口口 |①---|
口口口口 |----|
口口口口 |----|
①口口口 |----|
58
口口口③ |①---|
口口口② |②---|
口口口① |③---|
口口口口 |----|
59
口口口口 |①---|
①②③口 |②---|
口口口口 |③---|
口口口口 |----|
60
③口口口 |①---|
②口口口 |②---|
①口口口 |③---|
口口口口 |----|
61
口口口口 |①---|
口③②① |②---|
口口口口 |③---|
口口口口 |----|
62
口口口口 |①---|
口口口口 |②---|
口②④口 |③---|
口①③口 |④---|
63
口口口口 |①---|
①②③④ |②---|
口口口口 |③---|
口口口口 |④---|
64
口口口口 |①---|
口口口口 |----|
口②②口 |②---|
口①①口 |----|
65
口⑤口口 |①---|
①④口② |②---|
口③口口 |③-④-|
口口口口 |⑤---|
66
口口口口 |①---|
口④口② |②---|
口口口口 |③---|
口③口① |④---|
67
口口口口 |①---|
④口②口 |②---|
口口口口 |③---|
③口①口 |④---|
68
口④口② |①---|
口口口口 |②---|
口③口① |③---|
口口口口 |④---|
69
④口②口 |①---|
口口口口 |②---|
③口①口 |③---|
口口口口 |④---|
70
口口口口 |①---|
口口口口 |②---|
口口口口 |③---|
③④②① |④---|
71
口口口口 |①---|
口口口口 |②---|
③④②① |③---|
口口口口 |④---|
72
④口口③ |①---|
②口口① |②---|
口口口口 |③---|
口口口口 |④---|
73
口口口口 |①---|
口①①口 |----|
口①①口 |----|
口口口口 |----|
74
口①①口 |----|
②口口③ |①---|
口口口口 |②---|
口口口口 |③---|
75
口口口口 |①---|
口口口口 |②---|
口③④口 |③---|
口①②口 |④---|
76
口口口口 |①---|
①口口② |②---|
③口口④ |③---|
口口口口 |④---|
77
①②③④ |①---|
口口口口 |②---|
口口口口 |③---|
口口口口 |④---|
78
口口口口 |①---|
③口口④ |②---|
①口口② |③---|
口口口口 |④---|
79
口①②口 |①---|
口③④口 |②---|
口口口口 |③---|
口口口口 |④---|
80
口口口口 |①---|
口口口口 |----|
口②②口 |②---|
口①①口 |----|
81
口⑤⑤口 |①---|
①④④② |②---|
口③③口 |③-④-|
口口口口 |⑤---|
82
①口口口 |①---|
口口口② |②---|
③口口口 |③---|
口口口④ |④---|
83
口口④口 |①---|
口③口口 |②---|
口口②口 |③---|
口①口口 |④---|
84
口口口口 |①---|
①口口③ |②---|
口口口口 |③---|
②口口④ |④---|
85
口口口口 |①---|
口②③口 |②---|
①口口④ |③---|
口口口口 |④---|
86
口口口口 |①---|
口口口口 |②---|
口③④口 |③---|
口①②口 |④---|
87
口②口④ |①---|
①口③口 |②---|
口口口口 |③---|
口口口口 |④---|
88
口口口口 |①---|
②口口② |----|
口①①口 |②---|
口口口口 |----|
89
①②③口 |①---|
口口口口 |②---|
口口口口 |③---|
口口口口 |----|
90
口口口口 |①---|
口①①口 |----|
口①①口 |----|
口口口口 |----|

accuracy: 100%
最終更新:2022年07月01日 16:53