アットウィキロゴ
Laughin' Muffin
Gowrock

ADVANCED

Level: 7
BPM: 182
Notes: 529

1
口口口口 |----|
口口口口 |----|
口口口口 |----|
口口口口 |----|
2
口口口口 |①---|
口③②口 |②---|
口口口口 |③---|
口①④口 |④---|
3
口③④口 |①---|
口口口口 |②---|
口①②口 |③---|
口口口口 |④---|
4
口口口口 |①---|
口口口口 |②---|
③口口② |③---|
①口口④ |④---|
5
口口④口 |①---|
口③口口 |②---|
口口②口 |③---|
口①口口 |④---|
6
口口口口 |①---|
口③②口 |②---|
口口口口 |③---|
口①④口 |④---|
7
④③口口 |①---|
口口口口 |②---|
口①②口 |③---|
口口口口 |④---|
8
口口口口 |①---|
④口口① |②---|
口口口口 |③---|
口②③口 |④---|
9
口口口口 |①---|
口④①口 |②---|
口②口口 |③---|
口口③口 |④---|
10
口口口口 |①---|
口口口② |②---|
①④口口 |③---|
口口口③ |--④-|
11
口④⑤口 |①-②-|
⑥②③口 |③-④-|
口口①口 |⑤---|
口口口口 |⑥---|
12
口口口口 |①---|
口口口② |②---|
①口口口 |③---|
口④口③ |--④-|
13
口口口口 |①-②-|
口④⑤口 |③-④-|
口②③口 |⑤---|
口口①口 |----|
14
口口口口 |①---|
②口口② |②---|
①④口① |③---|
③口口③ |--④-|
15
口④⑤口 |①-②-|
口②③口 |③-④-|
⑦口①口 |⑤---|
⑥口口口 |⑥-⑦-|
16
口口口口 |①---|
①④口③ |--②-|
口口口② |③---|
口口口口 |--④-|
17
口①口口 |①--②|
口口②口 |--③-|
口③口口 |④---|
口④④口 |----|
18
①口口④ |①--②|
口②⑤口 |--③-|
③口口⑥ |④--⑤|
口口口口 |--⑥-|
19
口口口口 |①--②|
①口口口 |--③-|
口②口口
③口口口

口口口口
⑦⑥⑤④
口口口口 |④-⑤-|
口口口口 |⑥-⑦-|
20
口口口口 |①--②|
⑥口口③ |--③-|
口⑤②口 |④--⑤|
④口口① |--⑥-|
21
口②①口 |①-②-|
口④③口 |③-④-|
口⑥⑤口 |⑤-⑥-|
口⑧⑦口 |⑦-⑧-|
22
⑥口口③ |①--②|
口⑤②口 |--③-|
④口口① |④--⑤|
口口口口 |--⑥-|
23
口口口口 |①--②|
口口口① |--③-|
口口②口
口口口③

口口口口
④⑤⑥⑦
口口口口 |④-⑤-|
口口口口 |⑥-⑦-|
24
口④⑤口 |①---|
口口口口 |----|
②①①③ |②-③-|
口口口口 |④-⑤-|
25
口⑦⑦口 |①-②-|
③⑥⑥④ |③-④-|
口⑤⑤口 |⑤-⑥-|
口①②口 |⑦---|
26
口口④③ |--①-|
口口③④ |--②-|
口口②① |--③-|
口口①② |--④-|
27
①②口口 |--①-|
②①口口 |--②-|
③④口口 |--③-|
④③口口 |--④-|
28
口口③④ |--①-|
口口①② |--②-|
口口④③ |--③-|
口口②① |--④-|
29
①②口口 |--①-|
③④口口 |--②-|
②①口口 |--③-|
④③口口 |--④-|
30
口②①口 |--①-|
口④③口 |--②-|
口①②口 |--③-|
口③④口 |--④-|
31
④口口③ |--①-|
②口口① |--②-|
③口口④ |--③-|
①口口② |--④-|
32
④口口③ |--①-|
口②①口 |--②-|
口①②口 |--③-|
③口口④ |--④-|
33
口②①口 |--①-|
③口口③ |--②-|
③口口③ |----|
口①②口 |③---|
34
①口口③ |①---|
口①口口 |②---|
口口口口 |③---|
②口口④ |④---|
35
口①③口 |①---|
口口口口 |②---|
口口口口 |③---|
口②④口 |④---|
36
①口口③ |①---|
口口口口 |②---|
口口口口 |③---|
②口口④ |④---|
37
口①③口 |①---|
口口口口 |②---|
口⑤口口 |③---|
口②④口 |④-⑤-|
38
①口口③ |①---|
①口口口 |②---|
口口口口 |③---|
②口口④ |④---|
39
口①③口 |①---|
口口口口 |②---|
口口口口 |③---|
口②④口 |④---|
40
①口口③ |①---|
口口口口 |②---|
口口口口 |③---|
②口口④ |④---|
41
④②①③ |①---|
口口口口 |②---|
④②①③ |③---|
口口口口 |④---|
42
口口口口 |①---|
④①①口 |②---|
口口③口 |③---|
②口口口 |④---|
43
口口口口 |①---|
口口口① |②---|
口②⑤口 |③---|
口④口③ |④-⑤-|
44
口口口② |①---|
③①①口 |②---|
口口口④ |③---|
口口口口 |④---|
45
③口口口 |①---|
口口口② |②---|
①⑤口口 |③--④|
口口④口 |--⑤-|
46
口口口口 |①---|
②①①口 |②---|
口口⑤③ |③---|
口④口口 |④-⑤-|
47
口口口口 |①---|
口①①② |②---|
③⑤口口 |③---|
口口④口 |④-⑤-|
48
口口口口 |①---|
②①①口 |②---|
口口口③ |③---|
④口口口 |④---|
49
口口⑥口 |①---|
口⑤①口 |②---|
口口④口 |③-④-|
口③②口 |⑤-⑥-|
50
口口口① |①---|
口口⑥⑤ |--②③|
②③④口 |④---|
口口口口 |--⑤⑥|
51
口口口口 |①---|
口①口口 |----|
口③口⑤ |②-③-|
②口④口 |④-⑤-|
52
口口⑥⑤ |①---|
口口①口 |--②③|
②③④口 |④---|
口口口口 |--⑤⑥|
53
口①口口 |①-②-|
⑦口②口 |③-④-|
口③口⑥ |--⑤-|
⑤口④口 |⑥-⑦-|
54
口口口① |①---|
口口口口 |--②③|
②③口口
口口口口

口口⑥⑤
口口口口
口口④口 |④---|
口口口口 |--⑤⑥|
55
口①口口 |①-②-|
⑥口②⑥ |③-④-|
⑤③口⑤ |⑤---|
口口④口 |⑥---|
56
①口口① |①---|
口口口口 |----|
②③④口 |--②-|
口口口口 |③-④-|
57
口口口口 |①---|
口口口口 |----|
口口口① |----|
口口口口 |----|
58
③口口口 |①---|
口口②口 |②---|
口④口口 |③---|
口①口口 |--④-|
59
口④⑤口 |①-②-|
⑥②③口 |③-④-|
⑦口①口 |⑤---|
口口口口 |⑥-⑦-|
60
口口口口 |①---|
口口口② |②---|
口④口口 |③---|
口①③口 |--④-|
61
口④⑤口 |①-②-|
口②③口 |③-④-|
口口①口 |⑤---|
口口口口 |----|
62
口口口口 |①---|
②口口② |②---|
③④口③ |③---|
①口口① |--④-|
63
口④⑤口 |①-②-|
口②③口 |③-④-|
⑦口①口 |⑤---|
⑥口口口 |⑥-⑦-|
64
口口口口 |①---|
①口口③ |--②-|
口口口② |③---|
口口④口 |--④-|
65
②⑦⑦④ |①-②-|
口⑥⑥口 |③-④-|
①⑤⑤③ |⑤-⑥-|
口口口口 |⑦---|
66
口口口口 |①---|
②口口⑤ |②---|
口口④口 |③--④|
①口口③ |--⑤-|
67
口①②口 |①-②-|
口③④口 |③-④-|
口⑤口口 |⑤---|
口⑥⑦口 |⑥-⑦-|
68
口口口口 |①---|
⑤口口② |②---|
口④口口 |③--④|
③口口① |--⑤-|
69
口②①口 |①-②-|
口④③口 |③-④-|
口⑥⑤口 |⑤-⑥-|
口口⑦口 |⑦---|
70
口口口口 |①---|
②口口⑤ |②---|
口口④口 |③--④|
①口口③ |--⑤-|
71
口①②口 |①-②-|
口③④口 |③-④-|
口⑤口⑦ |⑤---|
口口口⑥ |⑥-⑦-|
72
口口口口 |①---|
③口口① |--②-|
②口④口 |③---|
口口口口 |--④-|
73
①口口④ |①--②|
口②⑤口 |--③-|
③口口⑥ |④--⑤|
口口口口 |--⑥-|
74
口口口口 |①--②|
③口口⑥ |--③-|
口②⑤口 |④--⑤|
①口口④ |--⑥-|
75
①口口口 |①--②|
口②口口 |--③-|
③口口口
口口口口

⑦⑥⑤④
口口口口
口口口口 |④-⑤-|
口口口口 |⑥-⑦-|
76
口口口口 |①--②|
④口口① |--③-|
口⑤②口 |④--⑤|
⑥口口③ |--⑥-|
77
⑤⑥⑦⑧ |①-②-|
④③②① |③-④-|
口口口口 |⑤-⑥-|
口口口口 |⑦-⑧-|
78
口口口口 |①--②|
③口口⑥ |--③-|
口②⑤口 |④--⑤|
①口口④ |--⑥-|
79
①口口口 |①--②|
口②口口 |--③-|
③口口口
口口口口

⑦⑥⑤④
口口口口
口口口口 |④-⑤-|
口口口口 |⑥-⑦-|
80
口口口口 |①---|
④口口⑤ |----|
口口①口 |②-③-|
②口口③ |④-⑤-|
81
⑦口口⑦ |①-②-|
口⑥⑥口 |③-④-|
⑤①②⑤ |⑤-⑥-|
口③④口 |⑦---|
82
口口口口 |①--②|
③口口⑥ |--③-|
口②⑤口 |④--⑤|
①口口④ |--⑥-|
83
①⑤⑥② |①-②-|
口③④口 |③-④-|
⑦口口⑧ |⑤-⑥-|
口口口口 |⑦-⑧-|
84
口⑦⑧口 |①-②-|
口口口口 |③-④-|
口⑤⑥口 |⑤-⑥-|
①②③④ |⑦-⑧-|
85
口口⑧口 |①-②-|
①②③口 |③-④-|
口⑥⑤④ |⑤-⑥-|
口⑦口口 |⑦-⑧-|
86
①口口④ |①--②|
口②⑤口 |--③-|
③口口⑥ |④--⑤|
口口口口 |--⑥-|
87
①②③④ |①-②-|
口口⑦⑥ |③-④-|
口⑤⑤口 |⑤---|
口口口口 |⑥-⑦-|
88
口口口口 |①---|
⑥①口口 |--②-|
④口口⑤ |③-④-|
②口口③ |⑤-⑥-|
89
⑤口口⑤ |①---|
口口口① |②-③-|
口口口口 |④---|
②③④口 |⑤---|
90
口口口口 |①---|
口①①口 |----|
口①①口 |----|
口口口口 |----|

accuracy: 100%
最終更新:2022年07月01日 17:10