アットウィキロゴ
Laughin' Muffin
Gowrock

EXTREME

Level: 10.2
BPM: 182
Notes: 884

1
口口口口 |----|
口口口口 |----|
口口口口 |----|
口口口口 |----|
2
口口口口 |①-②-|
⑦⑥⑤④ |③-④-|
口口②口 |⑤-⑥-|
①③⑧口 |⑦-⑧-|
3
口口口口 |①-②-|
口⑧口③ |③-④-|
④⑤⑥⑦ |⑤-⑥-|
①②口口 |⑦-⑧-|
4
⑦⑥⑤④ |①-②-|
口口②⑧ |③-④-|
口口口口 |⑤-⑥-|
①③口口 |⑦-⑧-|
5
口口⑥⑦ |①-②-|
⑤④③口 |③-④-|
①②口⑧ |⑤-⑥-|
口口口口 |⑦-⑧-|
6
口口口口 |①-②-|
⑦⑥⑤④ |③-④-|
口口②口 |⑤-⑥-|
①③⑧口 |⑦-⑧-|
7
口口口⑦ |①-②-|
口⑤④③ |③-④-|
口⑥⑧口 |⑤-⑥-|
①②口口 |⑦-⑧-|
8
口口①口 |①-②-|
⑧⑦⑥⑤ |③-④-|
口口口口 |⑤-⑥-|
②③④口 |⑦-⑧-|
9
口②口③ |①-②-|
⑧⑨⑩口 |③-④-|
①口⑥⑦ |⑤-⑥-|
④⑤口口 |⑦--⑧⑨⑩|
10
②口口口 |①---|
口口口① |②---|
③④⑤口 |③--④|
口口口口 |--⑤-|
11
②口口① |①-②-|
④口⑥③ |③-④-|
口口口⑤ |⑤---|
口⑦口口 |⑥-⑦-|
12
口口口② |①---|
口口口口 |②---|
口⑤④③ |③--④|
口口口① |--⑤-|
13
①口口② |①-②-|
③口⑥④ |③-④-|
⑤口口口 |⑤---|
⑦⑧⑨口 |⑥--⑦⑧⑨|
14
②②口口 |①---|
口口口口 |②---|
③④⑤口 |③--④|
口口口① |--⑤-|
15
②口①① |①-②-|
④⑥口③ |③-④-|
口口口⑤ |⑤---|
口⑦口口 |⑥-⑦-|
16
②②口口 |①---|
口口口口 |②-③-|
口③①口
口口口口

口口⑤⑤
口口口口
口口⑥口 |④---|
口口④口 |⑤-⑥-|
17
口口口④ |①---|
①口口④ |②---|
①②口口 |③---|
①②③④ |④---|
18
①⑤口⑧ |①-②③|
口④③⑦ |-④⑤-|
⑥口②口 |⑥-⑦⑧|
⑨⑩⑪口 |-⑨⑩⑪|
19
③口口口 |①-②③|
②口⑤口 |-④⑤-|
口口④口
口口口①

口⑦口⑥
口⑧口口
口⑨口口 |⑥--⑦⑧⑨|
口⑩口⑪ |⑩-⑪-|
20
①口口⑥ |①-②③|
⑤⑧③⑩ |-④⑤-|
④⑦②⑨ |⑥-⑦⑧|
口口口口 |-⑨⑩-|
21
③⑦④⑧ |①②③④|
⑤⑨⑥⑭ |⑤⑥⑦⑧|
⑬⑫⑪⑩ |⑨--⑩⑪⑫|
口①口② |⑬-⑭-|
22
⑤口③口 |①-②③|
④口②口 |-④⑤-|
口口口口
①口口口

口口口口
口口口⑧
口⑥口⑦ |⑥-⑦⑧|
⑨⑩⑪口 |-⑨⑩⑪|
23
口口口口 |①-②③|
③口⑤口 |-④⑤-|
②口④口
口口口①

口⑦口⑥
口⑧口口
口⑨口口 |⑥--⑦⑧⑨|
口⑩口⑪ |⑩-⑪-|
24
②③④⑦ |①---|
①口口口 |--②③|
①⑥口口 |④-⑤-|
⑤口口口 |⑥-⑦-|
25
⑤⑦⑥口 |①②③④--|
①②③④ |⑤-⑥⑦|
⑨口口⑧ |⑧-⑨-|
⑨⑩⑩⑧ |⑩---|
26
口⑤⑧⑥ |①-②③|
①③④口 |-④⑤-|
口⑦②口 |⑥-⑦⑧|
⑨⑩⑪口 |-⑨⑩⑪|
27
⑥口⑦口 |①-②③|
④口⑧⑤ |-④⑤-|
②口⑨③ |⑥--⑦⑧⑨|
⑪口⑩① |⑩-⑪-|
28
⑥⑩口① |①-②③|
口⑧⑨⑤ |-④⑤-|
口④⑦③ |⑥-⑦⑧|
口②口口 |-⑨⑩-|
29
⑨口⑭口 |①②③④|
⑬⑫⑪⑩ |⑤⑥⑦⑧|
③⑦⑧④ |⑨--⑩⑪⑫|
①⑤⑥② |⑬-⑭-|
30
口⑤口口 |①-②③|
口口口口 |-④⑤-|
口③④口
①口②口

口口口口
口口⑧口
⑦口口⑥ |⑥-⑦⑧|
⑨⑩⑪口 |-⑨⑩⑪|
31
③⑦⑪⑤ |①-②③|
②⑧口④ |-④⑤-|
口⑨⑥口 |⑥--⑦⑧⑨|
口⑩口① |⑩-⑪-|
32
①口口口 |①---|
①口口口 |----|
口口口口
口口口口

⑤口口口
口口口④
③口口口 |②-③-|
口口口② |④-⑤-|
33
口口①口 |①②③④--|
口⑧②口 |⑤-⑥-|
⑧⑦③⑧ |⑦---|
⑤口④⑥ |⑧---|
34
口⑥⑤⑦ |①-②③|
口⑫⑪① |④-⑤⑥|
⑩⑧⑨口 |⑦-⑧⑨|
④②③口 |⑩-⑪⑫|
35
口⑥⑤⑦ |①-②③|
口⑫⑪① |④-⑤⑥|
⑩⑧⑨口 |⑦-⑧⑨|
④②③口 |⑩-⑪⑫|
36
口⑥⑤⑦ |①-②③|
口⑫⑪① |④-⑤⑥|
⑩⑧⑨口 |⑦-⑧⑨|
④②③口 |⑩-⑪⑫|
37
口⑥口口 |①-②③|
口口口① |④⑤-⑥|
口口口口
④②③⑤

⑧口⑦⑨
⑩口口⑪
口⑫口口 |⑦⑧⑨-|
口口口口 |⑩⑪-⑫|
38
口⑧⑪口 |①-②③|
⑫②⑤⑨ |④-⑤⑥|
⑥⑩①③ |⑦-⑧⑨|
口④⑦口 |⑩-⑪⑫|
39
口⑧⑪口 |①-②③|
⑫②⑤⑨ |④-⑤⑥|
⑥⑩①③ |⑦-⑧⑨|
口④⑦口 |⑩-⑪⑫|
40
口⑧⑪口 |①-②③|
⑫②⑤⑨ |④-⑤⑥|
⑥⑩①③ |⑦-⑧⑨|
口④⑦口 |⑩-⑪⑫|
41
④口口⑤ |①②③-|
⑩⑪⑫⑬ |④⑤-⑥|
⑥口③⑦ |⑦⑧⑨-|
②⑧⑨① |⑩⑪⑫⑬|
42
口③②④ |①-②③|
口⑪⑫口 |④-⑤⑥|
⑦⑤⑥口 |⑦-⑧⑨|
①⑨⑧⑩ |⑩-⑪⑫|
43
口③②④ |①-②③|
①⑪⑫口 |④-⑤⑥|
⑦⑤⑥口 |⑦-⑧⑨|
口⑨⑧⑩ |⑩-⑪⑫|
44
口③②④ |①-②③|
①⑪⑫口 |④-⑤⑥|
⑦⑤⑥口 |⑦-⑧⑨|
口⑨⑧⑩ |⑩-⑪⑫|
45
⑤③②④ |①-②③|
①口口口 |④⑤-⑥|
口口口口
口口⑥口

口口⑫口
⑪口口⑩
口口口口 |⑦⑧⑨-|
⑨⑦口⑧ |⑩⑪-⑫|
46
⑦①口④ |①-②③|
口③⑥⑩ |④-⑤⑥|
⑤⑨⑫② |⑦-⑧⑨|
⑪口口⑧ |⑩-⑪⑫|
47
⑦口口④ |①-②③|
①③⑥⑨ |④-⑤⑥|
⑤⑧⑪② |⑦--⑧|
⑩口口⑧ |⑨-⑩⑪|
48
⑦口⑫④ |①-②③|
①③⑥⑩ |④-⑤⑥|
⑤⑨口② |⑦-⑧⑨|
⑪口口⑧ |⑩-⑪⑫|
49
口①口口 |①②③-|
③⑤口口 |④⑤-⑥|
口口②④
口⑥口口

⑩⑩口口
口口⑨⑨
⑧⑧口口 |⑦-⑧-|
口口⑦⑦ |⑨-⑩-|
50
口口①① |①---|
⑦⑧口口 |②-③④|
口⑤④③ |⑤---|
②口口⑥ |⑥-⑦⑧|
51
口口⑥口 |①---|
口⑤①口 |②---|
口口④口 |③-④-|
口③②口 |⑤-⑥-|
52
①口口⑤ |①---|
⑦口⑥④ |②-③④|
⑧②口③ |⑤---|
口口口口 |⑥-⑦⑧|
53
口口口④ |①-②-|
口③⑦口 |③-④-|
口⑥②口 |--⑤-|
①口口⑤ |⑥-⑦-|
54
①⑤④③ |①---|
⑦⑧口口 |②-③④|
②口口⑥ |⑤---|
口口口口 |⑥-⑦⑧|
55
⑤⑥⑦⑧ |①-②-|
口口①⑨ |③-④-|
口④③⑩ |⑤-⑥-⑦-|
②口口口 |⑧-⑨-⑩-|
56
口口口口 |①-②-③-|
口口口口 |----|
口⑤⑥口 |--④-|
④③②① |⑤-⑥-|
57
口口口口 |①②③-|
口③②① |----|
④⑤⑥口 |----|
口口口口 |---④⑤⑥|
58
口②②口 |①---|
③④⑤口 |②---|
口口口① |③--④|
口口口口 |--⑤-|
59
口口口口 |①-②-|
口⑥口⑤ |③-④-|
④口口③ |⑤---|
②⑦口① |⑥-⑦-|
60
口口②口 |①---|
口口口口 |②---|
③④⑤口 |③--④|
口口①口 |--⑤-|
61
②口口① |①-②-|
④口口③ |③-④-|
口口口⑤ |⑤---|
⑥⑦⑧口 |---⑥⑦⑧|
62
口②口口 |①---|
口口口口 |②---|
口⑤④③ |③--④|
口口口① |--⑤-|
63
①口口② |①-②-|
③口⑥④ |③-④-|
⑤口口口 |⑤---|
口口口⑦ |⑥-⑦-|
64
口口口口 |①--②|
口口口口 |--③-|
口⑥⑤④ |④--⑤|
①②③口 |--⑥-|
65
⑨⑦⑧⑨ |①--②③④|
⑤④③② |⑤-⑥-|
⑦⑨⑨⑧ |⑦-⑧-|
口①口⑥ |⑨---|
66
口口口口 |①---|
③口口② |②---|
③④⑤口 |③--④|
①①口口 |--⑤-|
67
②口①① |①-②-|
④⑤⑤③ |③-④-|
口口口口 |⑤---|
⑥口口⑦ |⑥-⑦-|
68
②口口口 |①---|
口⑤④③ |②---|
口①①③ |③--④|
口口口口 |--⑤-|
69
口口口口 |①-②-|
④口口口 |③-④-|
口②口口
①口③①

⑥口⑤⑤
口口⑦口
⑧⑨⑩口 |⑤-⑥-|
口口口口 |⑦--⑧⑨⑩|
70
⑤②口口 |①---|
②⑥④③ |②---|
口口口① |③--④|
口口口③ |⑤-⑥-|
71
口口①① |①-②-|
②口口口 |③-④-|
⑥⑦③③ |⑤---|
④⑥⑤⑤ |⑥-⑦-|
72
⑥④③⑤ |①-②-|
⑧②①⑦ |③-④-|
⑩口口⑨ |⑤⑥⑦⑧|
⑫口口⑪ |⑨⑩⑪⑫|
73
③④④③ |①--②|
口⑤⑤口 |--③-|
⑥②②⑥ |④--⑤|
口①①口 |--⑥-|
74
口口口口 |①②③④|
⑤口口⑤ |⑤---|
口③④口
口①②口

⑥口口⑧
口口⑦口
口口口口 |⑥-⑦⑧|
⑨⑩⑪口 |-⑨⑩⑪|
75
⑥口⑦口 |①-②③|
口③⑧⑤ |-④⑤-|
口②⑨④ |⑥--⑦⑧⑨|
⑪口⑩① |⑩-⑪-|
76
口⑧⑩⑤ |①-②③|
口⑦⑨④ |-④⑤-|
⑥③口口 |⑥-⑦⑧|
口②口① |-⑨⑩-|
77
口口口口 |①②③④|
口口口口 |⑤⑥⑦⑧|
⑦③④⑧
①⑤⑥②

⑨口口口
⑬⑫⑪⑩
口口口口 |⑨--⑩⑪⑫|
口口口⑭ |⑬--⑭|
78
口口⑤口 |①-②③|
口口口口 |-④⑤-|
口④③口
①②口口

口⑧口口
口口口口
⑥口口⑦ |⑥-⑦⑧|
口⑪⑩⑨ |-⑨⑩⑪|
79
⑤⑦口⑥ |①-②③|
③⑧④口 |-④⑤-|
口⑨②口 |⑥--⑦⑧⑨|
①⑩口⑪ |⑩-⑪-|
80
②③④口 |①---|
口口口口 |--②③|
口⑤口⑦ |④-⑤-|
①口⑥口 |⑥-⑦-|
81
⑨⑩⑩⑧ |①②③④--|
①②③④ |⑤-⑥⑦|
⑤⑨⑧口 |⑧-⑨-|
⑦口口⑥ |⑩---|
82
⑧⑪⑩⑨ |①-②③|
⑥口③⑤ |-④⑤-|
口口口⑦ |⑥-⑦⑧|
④②①口 |-⑨⑩⑪|
83
口口口口 |①②③④|
⑧④③⑦ |⑤⑥⑦⑧|
口②①口
⑥口口⑤

⑭口口⑬
口口口口
⑫⑯⑮⑪ |⑨⑩⑪⑫|
口⑩⑨口 |⑬⑭⑮⑯|
84
口④③口 |①②③④|
⑥②①⑤ |⑤⑥⑦⑧|
口口口口
口⑧⑦口

口口口口
口⑯⑮口
⑫⑭⑬⑪ |⑨⑩⑪⑫|
⑩口口⑨ |⑬⑭⑮⑯|
85
④③②① |①②③④|
⑩口口⑤ |⑤-⑥⑦|
⑭⑬⑫⑪ |⑧⑨⑩-|
⑥⑦⑧⑨ |⑪⑫⑬⑭|
86
口④③⑤ |①-②③|
口②①⑥ |-④⑤-|
口⑧口口 |⑥-⑦⑧|
⑦⑪⑩⑨ |-⑨⑩⑪|
87
⑥④③⑤ |①②③④|
⑧②①⑦ |⑤⑥⑦⑧|
口口口口
口口口口

口口口口
口⑭⑮口
口⑫⑬⑨ |⑨-⑩⑪|
⑩口口⑪ |⑫⑬⑭⑮|
88
口①⑩② |①---|
口口口口 |②-③④|
⑨⑧⑦⑥ |⑤--⑥⑦⑧|
口③④⑤ |⑨-⑩-|
89
⑤口口口 |①-②③|
口②③④ |④-⑤-|
口⑦口⑥ |⑥---|
①⑦⑦⑦ |⑦---|
90
口①①口 |①---|
①①口口 |----|
①口口口 |----|
口口口口 |----|

accuracy: 100%
最終更新:2022年07月01日 18:02