アットウィキロゴ
Metsysralos
庭師

EXTREME

Level: 10.3
BPM: 190
Notes(hold): 766(32)

1
口口口口 |----|
口口口口 |----|
口口口口 |----|
口口口口 |----|
2
口⑧④⑤ |①-②-|
②口口③ |③-④-|
①⑦口口 |⑤-⑥-|
口口口⑥ |⑦-⑧-|
3
口口口⑥ |①-②-|
口③②口 |③-④-|
口⑦⑧① |⑤-⑥-|
④⑨⑩⑤ |⑦⑧⑨⑩|
4
口⑧④⑤ |①-②-|
②口口③ |③-④-|
①⑦口口 |⑤-⑥-|
口口口⑥ |⑦-⑧-|
5
口口口⑥ |①-②-|
口③②口 |③-④-|
口⑦⑧① |⑤-⑥-|
④⑨⑩⑤ |⑦⑧⑨⑩|
6
②①④口 |①-②-|
口口口口 |③-④-|
口口口③ |⑤-⑥-|
口口口口 |⑦-⑧-|

口⑧口口
口⑥口口
⑦口口口
口口口⑤
7
口口口口 |①-②-|
④口②口 |③-④-|
口口口口 |⑤-⑥-|
③口①口 |⑦⑧⑨⑩|

口口口口
口口口⑤
口⑦⑧口
口⑨⑩⑥
8
②①④口 |①-②-|
口口口口 |③-④-|
口口口③ |⑤-⑥-|
口口口口 |⑦-⑧-|

口⑧口口
口⑥口口
⑦口口口
口口口⑤
9
口口口口 |①-②-|
④口②口 |③-④-|
口口口口 |⑤-⑥-|
③口①口 |⑦⑧⑨⑩|

口口口口
口口口⑤
口⑦⑧口
口⑨⑩⑥
10
①②③④ |①②③④|
⑨⑧⑦⑥ |⑤-⑥⑦|
⑪⑫⑬⑭ |⑧⑨⑩-|
⑤口口⑩ |⑪⑫⑬⑭|
11
②口口口 |①-②-|
口口口③ |③-④-|
口口口口 |--⑤⑥|
④①口口 |⑦⑧⑨⑩|

口⑥⑦⑤
口⑧口口
口口⑨口
口⑩口口
12
⑥⑥⑦⑦ |①-②-|
⑤口③③ |③-④-|
④⑤口② |⑤-⑥-|
口口②① |⑦-⑧-|

口口口口
口⑧口<
口⑧口
口⑧口<
13
口口口口 |----|
口口口口 |----|
口口口口 |----|
口口口口 |----|
14
口口口口 |----|
口口口口 |----|
口口口口 |----|
口口口口 |----|
15
口口口口 |----|
口口口口 |----|
口口口口 |----|
口口口口 |----|
16
口口口口 |①---|
口①口① |----|
①口①口 |②③④⑤|
口①口① |⑥---|

口②⑥⑥
口口③口
口④口⑥
口口⑤口
17
口口口口 |①---|
①口口< |②---|
口口口口 |③-④-|
口口口口 |⑤---|

口口口口
口口⑤②
口口④口
口③⑤②
18
口口① |①---|
①口口口 |②---|
口口口口 |③-④-|
口口口口 |⑤---|

②⑤口口
口④口口
②⑤③口
口口口口
19
口口口① |①---|
①口口< |②---|
口口口口 |③-④-|
口口口口 |⑤---|

口口口口
口口⑤②
口口④口
口③⑤②
20
口口① |①---|
①口口口 |②---|
口口口口 |③-④-|
口口口口 |⑤-⑥-|

口②⑤⑤
口④口口
口②⑤口
③口口口

口口口口
口口口口
⑥口口<
口口口口
21
口口口口 |----|
口④①口 |①---|
口口③口 |②-③-|
口④①② |④---|
22
口口口口 |①---|
口口① |②---|
①口口口 |③-④-|
口口口口 |⑤---|

③②⑤口
口④口口
口②⑤口
口口口口
23
口口口口 |①---|
口口口① |②---|
口口口口 |③-④-|
①口口< |⑤---|

口口口口
口⑤②口
口口④口
口⑤②③
24
口口口口 |①---|
口口口口 |②---|
口口① |③-④-|
①口口口 |⑤-⑥-|

②⑤③口
口④⑥口
②⑤口⑤
口口口口
25
口口口口 |①---|
①口口< |②---|
口口口口 |③-④-|
口口口口 |⑤---|

口口口口
口口⑤②
口口④口
口③⑤②
26
口口① |①---|
①口口口 |②---|
口口口口 |③-④-|
口口口口 |⑤---|

②⑤口口
口④口口
②⑤③口
口口口口
27
口口口① |①---|
①口口< |②---|
口口口口 |③-④-|
口口口口 |⑤---|

口口口口
口口⑤②
口口④口
口③⑤②
28
口口① |①---|
①口口口 |②---|
口口口口 |③-④-|
口口口口 |⑤-⑥-|

口②⑤⑤
口④口口
口②⑤口
③口口口

口口口口
口口口口
⑥口口<
口口口口
29
口口口口 |----|
口④①口 |①---|
口口③口 |②-③-|
口④①② |④---|
30
口口口口 |①---|
口⑤②口 |②---|
口口④① |③-④-|
口⑤②③ |⑤---|
31
口口口口 |①---|
口口① |②---|
①口口口 |③-④-|
口口口口 |⑤---|

③②⑤口
口④口口
口②⑤口
口口口口
32
③②⑤口 |①---|
①④口⑤ |②---|
口②⑤口 |③-④-|
⑥⑦口口 |⑤-⑥⑦|
33
口③⑧口 |①-②-|
⑥⑦①⑧ |③-④-|
②⑤口① |⑤-⑥⑦|
口⑨④④ |⑧-⑨-|
34
①④⑪⑧ |①---②③④-|
⑦⑨③⑪ |-----⑤⑥⑦|
⑥⑩⑧② |⑧-⑨-|
⑤口口口 |⑩-⑪-|
35
②③口口 |①-②③|
⑥口④口 |④-⑤-|
⑧⑨口⑦ |⑥-⑦-|
⑤①⑦④ |--⑧⑨|
36
⑤口①④ |①-②-|
⑧③④① |③-④-|
口口口⑦ |⑤-⑥-|
⑥②⑦口 |⑦-⑧-|
37
⑥⑤④③ |①-②-|
口⑩口② |③④⑤⑥⑦---|
口⑨②口 |⑧-⑨-|
⑧①⑪⑦ |⑩-⑪-|
38
口③⑥⑥ |①-②-|
④口口② |③-④-|
口⑤口① |⑤-⑥-|
⑦⑧口口 |--⑦⑧|
39
口③⑧口 |①-②-|
⑥⑦①⑧ |③-④-|
②⑤口① |⑤-⑥⑦|
口⑨④④ |⑧-⑨-|
40
①④⑪⑧ |①---②③④-|
⑦⑨③⑪ |-----⑤⑥⑦|
⑥⑩⑧② |⑧-⑨-|
⑤口口口 |⑩-⑪-|
41
②③口口 |①-②③|
口口④口 |④-⑤-|
口口口口 |⑥-⑦-|
⑤①口④ |--⑧⑨|

口口口口
⑥口口口
口口⑨⑦
口⑧⑦口
42
①②③④ |①②③④|
⑨⑧⑦⑥ |⑤-⑥⑦|
⑪⑫⑬⑭ |⑧⑨⑩-|
⑤口口⑩ |⑪⑫⑬⑭|
43
②口口口 |①-②-|
口口口③ |③-④-|
口口口口 |--⑤⑥|
④①口口 |⑦⑧⑨⑩|

口⑥⑦⑤
口⑧口口
口口⑨口
口⑩口口
44
⑥⑥⑦⑦ |①-②-|
⑤口③③ |③-④-|
④⑤⑨② |⑤-⑥-|
口⑧②① |⑦--⑧-⑨|
45
口口口⑧ |-①-②-③|
⑦①口④ |-④-⑤-⑥|
③口口⑥ |-⑦-⑧--|
⑤口口② |⑨⑩------|

⑨口口<
口口口口
口口口口
口口口口

⑩口口口
口口口口
口口口口
口口口口
46
口口②口 |①-②-|
口③④② |③-④-|
口口口口 |⑤-⑥-|
③①④① |⑦-⑧-|

⑦⑤口口
⑤口口口
⑦⑥口⑥
口⑧口⑧
47
⑪⑦③② |--①-|
③①⑥⑩ |②-③-|
⑨⑤②口 |④⑤⑥⑦|
①口④⑧ |⑧⑨⑩⑪|
48
口⑤⑥⑤ |--①-|
②④口口 |②-③-|
口⑦④③ |④---|
①①口口 |⑤-⑥⑦|
49
②口⑤口 |①-②-|
③⑥③口 |③-④-|
④口⑦④ |----|
①⑧①② |⑤⑥⑦⑧|
50
口口口口 |①-②-|
口口③① |③-④-|
④口<口 |----⑤⑥⑦⑧|
口口②口 |⑨---|

⑧⑦⑥⑤
口口口口
⑤口口口
口口口⑨
51
口口口口 |①-②-|
①③口口 |③-④-|
口>口④ |----⑤⑥⑦⑧|
口②口口 |⑨---|

⑤⑥⑦⑧
口口口口
口口口⑤
⑨口口口
52
口口口口 |①--②|
口口口口 |--③-|
口口口口 |④--⑤|
口>口① |--⑥-|

口口口口
口口口口
口②口
口口口②

口口口口
口口③③
口口③口
口④口<

口口口口
口口口口
⑤口<口
口⑤口口

口口口口
⑥⑥口口
⑥口口口
口口口口
53
②⑤口③ |①-②-|
口口③口 |③-④-|
⑥②④① |--⑤-|
④口①口 |⑥---|
54
口口②口 |①-②-|
口③④② |③-④-|
口口口口 |⑤-⑥-|
③①④① |⑦-⑧-|

⑦⑤口口
⑤口口口
⑦⑥口⑥
口⑧口⑧
55
⑪⑦③② |--①-|
③①⑥⑩ |②-③-|
⑨⑤②口 |④⑤⑥⑦|
①口④⑧ |⑧⑨⑩⑪|
56
口⑥⑦⑥ |--①-|
②④口口 |②-③-|
口⑤④③ |④-⑤-|
①①口口 |⑥-⑦-|
57
③⑦口⑪ |--①-|
①口⑥⑨ |②-③-|
⑩口③② |④⑤⑥⑦|
⑧⑤②④ |⑧⑨⑩⑪|
58
③口口口 |①-②-|
口①口口 |③-④-|
口①④② |⑤--⑥|
口口口口 |--⑦-|

口口⑥口
⑥口口口
口⑦口口
口⑤⑦⑤
59
②口⑥① |①-②③|
口③口① |④-⑤-|
口⑦④口 |--⑥-|
⑤⑤口⑧ |⑦-⑧-|
60
⑧⑤⑦⑤ |①-②-|
①⑥②⑨ |③-④-|
①口④口 |⑤-⑥⑦|
⑩③口⑪ |⑧⑨⑩⑪|
61
⑧口⑦⑨ |①-②-|
①⑥②⑩ |③-④-|
③口⑤⑪ |⑤⑥⑦⑧|
口④④⑫ |⑨⑩⑪⑫|
62
口③口⑦ |①-②-|
②口⑥口 |③-④-|
口⑤⑧口 |⑤-⑥-|
①口④口 |⑦-⑧-|
63
①③口口 |----|
口⑦④口 |--①②|
口⑤⑩⑧ |③④⑤⑥|
口⑨⑥② |⑦⑧⑨⑩|
64
口⑧④⑤ |①-②-|
②口口③ |③-④-|
①⑦口口 |⑤-⑥-|
口口口⑥ |⑦-⑧-|
65
口口口口 |①-②-|
口③②口 |③-④-|
口口口① |----|
④口口口 |----|
66
口口口口 |①---|
口口口口 |②---|
①口口< |③-④-|
口口口口 |⑤---|

口口口口
口口⑤②
口口④口
口③⑤②
67
口口①口 |①---|
口口口口 |②---|
①口口口 |③---|
口口∧口 |④---|

口②③口
口口④口
口②口④
口③口<
68
口⑧④⑤ |①-②-|
②口口③ |③-④-|
①⑦口口 |⑤-⑥-|
口①口⑥ |⑦-⑧-|
69
口口口口 |①-②-|
口③②口 |③-④-|
口口口① |----|
④口口口 |----|
70
①口口< |①---|
口口⑤② |②---|
口口④口 |③-④-|
口③⑤② |⑤---|
71
⑤⑥①⑤ |①-②-|
口②⑧口 |③-④-|
口④⑤③ |⑤-⑥-|
⑦⑦⑧⑥ |⑦-⑧-|
72
口口口口 |①-②-|
口口口口 |③-④-|
①口<口 |⑤-⑥-|
口口口口 |⑦-⑧-|

口口④口
②口口③
③口口口
口口口口

口>口⑤
口口口口
口口口口
口口口口

口⑧口⑥
口口口口
口⑦口口
口口口⑥
73
③口④口 |①-②-|
口口②口 |③④⑤⑥|
口口口① |⑦---|
⑤口⑥口 |⑧-⑨-|

口口口口
⑦口口<
口口口口
口口口口

口口口口
⑧⑨口口
口口⑧口
口口口口
74
口口⑦① |①-②-|
口口②口 |③-④-|
口③口⑥ |⑤---|
④⑤⑤⑤ |⑥-⑦-|
75
③①口口 |①-②-|
口口口口 |③-④-|
②④口口 |⑤---|
口口口口 |⑥---|

口口口口
口⑥口口
口⑤口
口⑥口口
76
口⑧④⑤ |①-②-|
②口口③ |③-④-|
①⑦①口 |⑤-⑥-|
口口口⑥ |⑦-⑧-|
77
口口口口 |①-②-|
口③②口 |③-④-|
口口口① |----|
④口口口 |----|
78
②①④⑥ |①-②-|
口口口⑧ |③-④-|
⑨口口③ |⑤-⑥⑦|
⑦口口⑤ |-⑧⑨-|
79
口⑥口口 |①②-③|
口②③口 |④-⑤⑥|
口④①口 |-⑦⑧⑨|
口口⑤口 |⑩⑪⑫⑬|

⑧口口⑦
口口口口
口口⑬⑪
⑩⑫口⑨
80
口⑧④⑤ |①-②-|
②口口③ |③-④-|
①⑦口口 |⑤-⑥-|
口口口⑥ |⑦-⑧-|
81
口口口⑥ |①-②-|
口③②口 |③-④-|
口⑦⑧① |⑤-⑥-|
④⑨⑩⑤ |⑦⑧⑨⑩|
82
口口口口 |----|
口口口口 |----|
口口口口 |----|
口口口口 |----|
最終更新:2022年06月01日 05:37