アットウィキロゴ
ピアノ独奏無言歌 "灰燼"
BEMANI Sound Team "Virkato Wakhmaninov"

EXTREME

Level: 10.7
BPM: 100-200
Notes: 1109

0
口口口口 |(150)----|
口口口口 |----|
口口口口 |----|
口口口口 |----|
1
①②⑧⑦ |①②(160)③④|
⑨⑩④③ |⑤(178)⑥-⑦|
⑤⑥⑫⑪ |(184)⑧⑨(188)⑩⑪|
口口口口 |(192)⑫---|
2
④④口口 |(124)----|
④口③⑤ |---①②③|
口②口口 |④---|
①口口口 |---⑤|
3
口口⑤⑤ |①---|
口④①⑤ |---②③④|
⑥口③口 |⑤---|
口口口② |---⑥|
4
②口口口 |①---|
口③口口 |---②③④|
⑤①④⑥ |⑤---|
⑤⑤口口 |---⑥|
5
口口口② |(116)①---|
口口③口 |---②③④|
口④①口
口口口口

⑥口口⑦
口口⑧口
口⑨口⑤ |(100)⑤---|
口口⑤⑤ |⑥--⑦⑧⑨|
6
口口口口 |(140)①---|
口口口口 |----|
口口口口
①口口口
7
口①②③ |(152)----|
口口口口 |①②③-|
口口口口 |----|
口口口口 |----|
8
口口口② |(165)①---|
口口口口 |②---|
③口③口 |③---|
①口①口 |----|
9
②口口④ |①---|
口口口口 |②---|
口①口① |(158)③---|
口③口③ |④---|
10
口口③口 |①---|
口③②③ |②---|
口口③口 |(147)③---|
①口口口 |----|
11
口口口口 |----|
口②口口 |----|
口口口口 |①---|
口口口① |②---|
12
口①口口 |(131)①---|
①口①口 |----|
口①口口 |----|
口口口口 |----|
13
口口口口 |(175)①---|
②口口⑤ |----|
口③④口 |----|
①①①① |②③④⑤|
14
③④口② |①---|
口②②口 |②---|
①④④③ |③---|
①①③口 |④---|
15
口口①口 |①---|
口②口① |②---|
②口口口
①口口②

口⑤⑩④
③口口⑧
口口⑥口 |③④⑤⑥|
⑨⑦口口 |⑦⑧⑨⑩|
16
①⑥⑫⑦ |①--②|
⑤④⑩口 |③④⑤⑥|
③②⑧⑨ |⑦--⑧|
口口口⑪ |⑨⑩⑪⑫|
17
⑧⑦⑬⑨ |①②③④|
⑥⑤⑭⑩ |⑤⑥⑦⑧|
④③⑮⑪ |⑨⑩⑪⑫|
②①⑯⑫ |⑬⑭⑮⑯|
18
④②口③ |①---|
②③口口 |②---|
①②口③ |③---|
①①④④ |④---|
19
口口①口 |①---|
口口口② |②---|
①②①口
口②口口

口口口口
④③⑦口
⑥口⑤③ |③---|
③口口口 |④⑤⑥⑦|
20
①②⑧① |①--②|
口⑦口⑦ |③④⑤⑥|
⑨⑩⑪⑫ |⑦--⑧|
⑥⑤④③ |⑨⑩⑪⑫|
21
①⑦⑧⑦ |①--②|
②口①口 |③④⑤⑥|
⑨⑩⑪⑫ |⑦--⑧|
⑥⑤④③ |⑨⑩⑪⑫|
22
①⑦⑧口 |①--②|
口②①⑦ |③④⑤⑥|
⑨⑩⑪⑫ |⑦--⑧|
⑥⑤④③ |⑨⑩⑪⑫|
23
①⑩⑪④ |①②③④|
⑤②③⑧ |⑤⑥⑦⑧|
⑬⑭⑮⑯ |⑨⑩⑪⑫|
⑨⑥⑦⑫ |⑬⑭⑮⑯|
24
①口口⑦ |①-②-|
③④⑤⑥ |③④⑤⑥|
⑫⑪⑩⑨ |⑦-⑧-|
口②⑧口 |⑨⑩⑪⑫|
25
①①⑤④ |①--②|
③口②口 |③---|
口口口⑥ |④-⑤-|
⑦③口② |⑥-⑦-|
26
①口口⑦ |①-②-|
③④⑤⑥ |③④⑤⑥|
⑫⑪⑩⑨ |⑦-⑧-|
口②⑧口 |⑨⑩⑪⑫|
27
④①①口 |①--②|
口②③⑤ |③---|
口⑥⑦口 |④-⑤-|
②口口③ |⑥-⑦-|
28
⑨②③口 |①②③④|
⑤⑫口⑧ |⑤⑥⑦⑧|
①⑩口④ |⑨-⑩-|
⑪⑥⑦口 |⑪-⑫-|
29
口口①① |①--②|
④口口⑤ |③---|
③⑤④② |④---|
⑤③②④ |⑤---|
30
⑧⑩⑨⑦ |①②③④|
⑫⑥⑤⑪ |⑤⑥⑦⑧|
④⑭⑬③ |⑨⑩⑪⑫|
⑯②①⑮ |⑬⑭⑮⑯|
31
口口⑤口 |①---|
口④口口 |----|
③口口口 |②-③-|
口②①口 |④-⑤-|
32
口⑦口① |①--②|
②口⑥③ |③---|
口口口⑤ |④-⑤-|
②口④③ |⑥-⑦-|
33
①口口⑦ |①--②|
③④口② |③---|
口口⑥口 |④-⑤-|
③⑤口② |⑥-⑦-|
34
⑥口①口 |①--②|
②口④③ |③---|
⑦口口口 |(170)④-⑤-|
②口⑤③ |⑥-⑦-|
35
口口口⑤ |①---|
口①④口 |----|
口口口③ |②-③-|
口口②口 |④-⑤-|
36
①口口口 |(165)①---|
口口口口 |②---|
口②口口
口口口口

⑥口口口
口⑤口口
④口口口 |③-④-|
口③口口 |⑤-⑥-|
37
口口口① |①---|
口口口口 |②---|
口④②⑥ |③-④-|
③口⑤口 |⑤-⑥-|
38
⑥①④口 |①---|
口⑤口③ |②---|
②口口口 |③-④-|
口口口口 |⑤-⑥-|
39
口口口① |①---|
口口口⑤ |-②③④|
口③④口 |⑤---|
②口口⑥ |⑥---|
40
口口口口 |①---|
⑤口口口 |②③④⑤|
口④③②
口①口口

口口⑦口
口⑧口⑥
⑨口口口 |⑥⑦⑧⑨|
⑬⑫⑪⑩ |⑩⑪⑫⑬|
41
①①⑩② |①---|
⑨口③口 |②③④⑤|
⑤④⑫⑥ |⑥⑦⑧⑨|
口⑧⑦⑪ |⑩-⑪⑫|
42
②⑩口⑤ |①---|
⑥①⑪⑨ |②③④⑤|
③⑫口④ |⑥⑦⑧⑨|
口⑦口⑧ |⑩-⑪⑫|
43
口⑧⑦⑩ |①---|
⑨口口⑥ |②③④⑤|
⑤口⑫② |⑥⑦⑧⑨|
①④③⑪ |⑩-⑪⑫|
44
③口口口 |①---|
口①⑤口 |②③④⑤|
②口口口
口口④口

口⑦⑧口
⑥⑩口⑨
口口口口 |⑥⑦⑧⑨|
⑪⑪口口 |⑩-⑪-|
45
②③④⑤ |①---|
口口口口 |②③④⑤|
①口①口
口口口口

口口口口
⑥⑪口口
口⑦⑫⑨ |⑥⑦⑧⑨|
⑩口⑧口 |⑩-⑪⑫|
46
⑥⑩口⑨ |①---|
②口口⑤ |②③④⑤|
⑦⑫口⑧ |⑥⑦⑧⑨|
⑪③④① |⑩-⑪⑫|
47
②口⑪⑪ |①---|
口③①口 |②③④⑤|
⑥口④⑨ |⑥⑦⑧⑨|
⑩⑦⑧⑤ |⑩--⑪|
48
口口口口 |①---|
⑤③①① |②---|
⑧⑥④口 |③④⑤⑥|
⑩⑨⑦② |⑦⑧⑨⑩|
49
⑩⑦④① |(174)①-(175)②-(176)③-|
⑪⑧⑤② |(177)④-(178)⑤-(179)⑥-|
⑫⑨⑥③ |(180)⑦-(181)⑧-(182)⑨-|
口口口口 |(183)⑩-(184)⑪-(185)⑫-|
50
⑩⑦④① |(186)①-(187)②-(188)③-|
⑪⑧⑤② |(189)④-(190)⑤-(191)⑥-|
⑫⑨⑥③ |(192)⑦-⑧(193)-⑨-|
④⑩口⑦ |(194)⑩-⑪(195)-⑫-|
51
⑩⑦④① |(196)①-②-③-|
⑪⑧⑤② |(197)④-⑤-⑥-|
⑫⑨⑥③ |(198)⑦-⑧-⑨-|
口口口⑩ |(199)⑩-⑪-⑫-|
52
⑩⑦④① |(200)①-②-③-|
⑪⑧⑤② |④-⑤-⑥-|
⑫⑨⑥③ |⑦-⑧-⑨-|
口①④口 |⑩-⑪-⑫-|
53
⑩⑦④① |①-②-③-|
⑪⑧⑤② |④-⑤-⑥-|
⑫⑨⑥③ |⑦-⑧-⑨-|
⑩⑦④① |⑩-⑪-⑫-|
54
⑩⑦④① |①-②-③-|
⑪⑧⑤② |④-⑤-⑥-|
⑫⑨⑥③ |⑦-⑧-⑨-|
口口⑩⑦ |⑩-⑪-⑫-|
55
⑩⑦④① |①-②-③-|
⑪⑧⑤② |④-⑤-⑥-|
⑫⑨⑥③ |⑦-⑧-⑨-|
④①⑩⑦ |⑩-⑪-⑫-|
56
⑫⑨⑥③ |①-②-③-|
⑪⑧⑤② |④-⑤-⑥-|
口口口口 |⑦-⑧-⑨-|
④①⑩⑦ |⑩-⑪-⑫-|
57
⑫⑨⑥③ |①-②-③-|
⑪⑧⑤② |④-⑤-⑥-|
④①⑩⑦ |⑦-⑧-⑨-|
口口口口 |⑩-⑪-⑫-|
58
口口口口 |①-②-③-|
⑩⑧⑪① |④-⑤-⑥-|
④⑨⑫⑦ |(198)⑦-⑧-⑨-|
②③⑥⑤ |(196)⑩-⑪-⑫-|
59
④③②① |(194)①②③④|
⑪⑨⑪⑨ |(192)⑤⑥⑦⑧|
⑫⑩⑫⑩ |(189)⑨-⑩-|
⑧⑦⑥⑤ |(186)⑪-⑫-|
60
④③②① |(183)①②③④|
⑫⑪⑩⑨ |(180)⑤⑥⑦⑧|
⑯⑮⑭⑬ |⑨⑩⑪⑫|
⑧⑦⑥⑤ |(177)⑬⑭⑮⑯|
61
口⑥③① |①-②-|
⑦口⑤⑩ |(174)③-④-|
口⑧⑨口 |(171)⑤-⑥-|
口口②④ |(168)⑦⑧⑨⑩|
62
③④口② |①---|
口②②口 |(174)②---|
①④④③ |(180)③---|
①①③口 |④---|
63
口口①口 |①---|
口②口① |②---|
②口口口
①口口②

口⑤⑩④
③口口⑧
口口⑥口 |③④⑤⑥|
⑨⑦口口 |⑦⑧⑨⑩|
64
①⑥⑫⑦ |①--②|
⑤④⑩口 |③④⑤⑥|
③②⑧⑨ |⑦--⑧|
口口口⑪ |⑨⑩⑪⑫|
65
⑧⑦⑬⑨ |①②③④|
⑥⑤⑭⑩ |⑤⑥⑦⑧|
④③⑮⑪ |⑨⑩⑪⑫|
②①⑯⑫ |⑬⑭⑮⑯|
66
④②口③ |①---|
②③口口 |②---|
①②口③ |③---|
①①④④ |④---|
67
口口①口 |①---|
口口口② |②---|
①②①口
口②口口

口口口口
④③⑦口
⑥口⑤③ |③---|
③口口口 |④⑤⑥⑦|
68
①②⑧① |①--②|
口⑦口⑦ |③④⑤⑥|
⑨⑩⑪⑫ |⑦--⑧|
⑥⑤④③ |⑨⑩⑪⑫|
69
①⑦⑧⑦ |①--②|
②口①口 |③④⑤⑥|
⑨⑩⑪⑫ |⑦--⑧|
⑥⑤④③ |⑨⑩⑪⑫|
70
①⑦⑧口 |①--②|
口②①⑦ |③④⑤⑥|
⑨⑩⑪⑫ |⑦--⑧|
⑥⑤④③ |⑨⑩⑪⑫|
71
①口口② |①②③④|
⑦③④⑧ |⑤⑥⑦⑧|
口口口口
⑤口口⑥

⑮⑨⑩⑯
口口口口
口⑬⑭口 |⑨⑩⑪⑫|
口⑪⑫口 |⑬⑭⑮⑯|
72
⑬⑭⑯⑮ |①②③④|
⑥②④⑧ |⑤⑥⑦⑧|
①⑩⑫③ |⑨⑩⑪⑫|
⑤⑨⑪⑦ |⑬⑭⑮⑯|
73
⑬⑭⑯⑮ |①②③④|
⑥②④⑧ |⑤⑥⑦⑧|
①⑩⑫③ |⑨⑩⑪⑫|
⑤⑨⑪⑦ |⑬⑭⑮⑯|
74
⑪⑮⑯⑫ |①②③④|
⑦③④⑧ |⑤⑥⑦⑧|
①⑬⑭② |⑨⑩⑪⑫|
⑤⑨⑩⑥ |⑬⑭⑮⑯|
75
⑪⑮⑯⑫ |①②③④|
⑦③④⑧ |⑤⑥⑦⑧|
①⑬⑭② |⑨⑩⑪⑫|
⑤⑨⑩⑥ |⑬⑭⑮⑯|
76
⑪⑮⑯⑫ |①②③④|
⑦③④⑧ |⑤⑥⑦⑧|
①⑬⑭② |⑨⑩⑪⑫|
⑤⑨⑩⑥ |⑬⑭⑮⑯|
77
口口口口 |①-②-③-|
③⑤④⑧ |--④-⑤-|
①⑨⑩⑥ |⑥-⑦-⑧-|
②口口⑦ |--⑨-⑩-|
78
口口口口 |(175)①-②-③-|
③⑤④口 |--④-⑤-|
①口口口
②口口口

⑧口⑦⑦
口口口⑧
口口口口 |⑥-⑦-|
⑨⑥⑨⑥ |⑧-⑨-|
79
口①口口 |(180)①--②|
①⑥②口 |③④⑤⑥|
①⑤③②
口④口口

⑨口⑦⑦
⑩口口⑧
口口口口 |⑦-⑧-|
⑨口⑩⑧ |⑨-⑩-|
80
⑦②⑦⑨ |①--②|
口⑥①⑤ |③-④⑤|
②③④① |⑥-⑦-|
⑧⑥⑧⑨ |⑧-⑨-|
81
⑥①⑥口 |①-②③|
①⑦②口 |④-⑤-|
⑨⑧③④ |⑥-⑦⑧|
⑩⑤口口 |⑨-⑩-|
82
⑥①⑥① |①-②③|
⑩口口⑤ |④-⑤-|
口⑦②口 |⑥-⑦⑧|
⑨⑧③④ |⑨-⑩-|
83
⑦②⑩① |①--②|
口⑥⑨⑩ |③④⑤⑥|
口⑨⑤④ |⑦-⑧-|
⑧口⑧③ |⑨-⑩-|
84
⑧①口⑨ |①②③④|
②⑦⑬口 |⑤⑥⑦⑧|
③⑫⑥⑨ |⑨---|
⑩④⑪⑤ |⑩⑪⑫⑬|
85
⑥①口⑤ |(172)①-②-③-|
口⑤口② |④-⑤-⑥-|
④口口⑥
口③口④

口⑧⑦口
⑦口⑧口
口⑧⑦口 |(158)⑦---|
口口⑧口 |⑧---|
86
⑤口⑤口 |(150)①---|
口口口② |---②③④|
口口口③ |⑤---|
①⑥口④ |---⑥|
87
口口口口 |①---|
②口口口 |---②③④|
③口口口
④口①口

口⑤口⑤
口口口口
口口口口 |⑤---|
口口⑥口 |---⑥|
88
口口口口 |①---|
口口口② |---②③④|
口口口③
口①口④

⑤口⑤口
口口口口
口口口口 |⑤---|
口⑥口口 |---⑥|
89
⑥⑤口⑤ |(142)①---|
②口口口 |---②③④|
③口口口 |(132)⑤---|
④口①⑥ |⑥---|
90
⑤口②口 |(152)①---|
口口①口 |(157)②③④⑤|
口口口口
口③口④

口口口口
⑨⑬⑩⑥
⑦⑪⑫⑧ |(162)⑥⑦⑧⑨|
口口口口 |(167)⑩⑪⑫⑬|
91
⑧④⑤① |(172)①②③④|
⑫⑯⑬⑨ |(176)⑤⑥⑦⑧|
⑩⑭⑮⑪ |(180)⑨⑩⑪⑫|
②⑥③⑦ |⑬⑭⑮⑯|
92
⑦⑤③① |①②③④|
⑨⑯⑭⑫ |⑤⑥⑦⑧|
⑪⑬⑮⑩ |⑨⑩⑪⑫|
②④⑥⑧ |⑬⑭⑮⑯|
93
⑦⑤③① |①②③④|
⑨⑯⑭⑫ |⑤⑥⑦⑧|
⑪⑬⑮⑩ |⑨⑩⑪⑫|
②④⑥⑧ |(168)⑬⑭⑮⑯|
94
②③口① |①---|
⑩⑪⑨⑧ |--②③|
⑥⑦口口 |④⑤⑥⑦|
口口⑤④ |(180)⑧⑨⑩⑪|
95
口口口口 |①②--|
口口口口 |----|
口口②① |----|
口口口口 |----|
96
口口口口 |(168)----|
口口口口 |----|
口口口口 |----|
口口口口 |----|
97
口口口口 |(164)----|
口口口口 |----|
口口口口 |(160)----|
口口口口 |----|
98
口口口口 |----|
口口口口 |----|
口口口口 |(165)----|
口口口口 |----|
99
④③②① |(170)----|
④③②① |(175)----|
①②③④ |(180)①②③④|
①②③④ |----|

accuracy: 99%
最終更新:2023年02月22日 19:35