アットウィキロゴ
Juicy
kors k Lovers DJ Yoshitaka

BASIC

Level: 3
BPM: 125
Notes: 171

1
口口口口 |----|
口口口口 |----|
口口口口 |----|
口口口口 |----|
2
口口口口 |①---|
③口口口 |--②-|
②口口口 |----|
①口口口 |③---|
3
口口口口 |①---|
口口口③ |--②-|
口口口② |----|
口口口① |③---|
4
口口口口 |①---|
口③口口 |--②-|
口②口口 |----|
口①口口 |③---|
5
口口口口 |①---|
口口③口 |--②-|
口口②口 |----|
口口①口 |③---|
6
②①③④ |①---|
口口口口 |②---|
口口口口 |③---|
口口口口 |④---|
7
口口口口 |①---|
②①③④ |②---|
口口口口 |③---|
口口口口 |④---|
8
口口口口 |①---|
口口口口 |②---|
②①③④ |③---|
口口口口 |④---|
9
口口口口 |①---|
③口口③ |②---|
口口口口 |----|
②①口口 |③---|
10
①②③口 |----|
口口口口 |①---|
口口口口 |②---|
口口口口 |③---|
11
口口口口 |----|
口③②① |①---|
口口口口 |②---|
口口口口 |③---|
12
口口口口 |----|
口口口口 |①---|
①②③口 |②---|
口口口口 |③---|
13
口口口口 |----|
口口口口 |①---|
口口口口 |②---|
口③②① |③---|
14
口③②① |----|
口口口口 |①---|
口口口口 |②---|
口口口口 |③---|
15
口口口口 |----|
①②③口 |①---|
口口口口 |②---|
口口口口 |③---|
16
口口口口 |----|
口口口口 |①---|
口③②① |②---|
口口口口 |③---|
17
①口口① |①---|
②口口② |②---|
③口口③ |③---|
口口口口 |----|
18
口口口口 |----|
①口口② |①-②-|
③口口④ |----|
口口口口 |③-④-|
19
口口口口 |----|
口①口口 |①---|
口②口口 |②---|
口③口口 |③---|
20
口①②口 |----|
口口口口 |①-②-|
口口口口 |----|
口③④口 |③-④-|
21
口口口口 |----|
口口口口 |①---|
口③②① |②---|
口口口口 |③---|
22
口口口口 |----|
③口口④ |①-②-|
①口口② |----|
口口口口 |③-④-|
23
口口③口 |----|
口口②口 |①---|
口口①口 |②---|
口口口口 |③---|
24
口③④口 |----|
口口口口 |①-②-|
口口口口 |----|
口①②口 |③-④-|
25
口口口口 |----|
③②①口 |①---|
口口口口 |②---|
口口口口 |③---|
26
口口口口 |----|
口口口口 |①---|
①②③口 |②---|
口口口口 |③---|
27
口口口口 |①---|
口②口口 |②---|
口口口① |----|
口口口口 |----|
28
口①②口 |----|
口③口口 |①---|
口口口口 |②---|
口口口口 |③---|
29
口口口口 |①---|
口口①口 |②---|
口②③口 |③---|
口口口口 |----|
30
口口口口 |①---|
口②口④ |②---|
①口③① |③---|
口口口口 |④---|
31
口口①口 |①---|
口口②口 |②---|
口口③口 |③---|
口口④口 |④---|
32
口③③口 |①---|
口口口口 |----|
①②②① |②---|
口口口口 |--③-|
33
口口口口 |----|
口口口口 |----|
口口口口 |----|
口口口口 |----|
34
口①口口 |①---|
口口②口 |②---|
口③口口 |③---|
口口④口 |④---|
35
②口口② |①---|
口口口口 |--②-|
①口口① |----|
口口口口 |----|
36
口①②口 |①---|
口③④口 |②---|
口口口口 |③---|
口口口口 |④---|
37
口口口口 |①-②-|
口口口口 |③-④-|
①②③④ |----|
口口口口 |----|
38
口口①口 |①---|
口②口口 |②---|
口口③口 |③---|
口④口口 |④---|
39
②口口② |①---|
口口口口 |--②-|
①口口① |----|
口口口口 |----|
40
口口口口 |①---|
口①①口 |----|
口口口口 |②-③-|
⑤④③② |④-⑤-|
41
口口口口 |----|
①口口口 |①---|
②口口口 |②---|
③口口口 |③---|
42
口口口口 |----|
口口口① |①---|
口口口② |②---|
口口口③ |③---|
43
口口口口 |----|
口①口口 |①---|
口②口口 |②---|
口③口口 |③---|
44
口口口口 |----|
口口①口 |①---|
口口②口 |②---|
口口③口 |③---|
45
②③④口 |①---|
口口口口 |②---|
①口口口 |③---|
口口口口 |④---|
46
口④③② |①---|
口口口口 |②---|
口口口① |③---|
口口口口 |④---|
47
口口口口 |①---|
②③④口 |②---|
口口口口 |③---|
①口口口 |④---|
48
口口口口 |①---|
口④③② |②---|
口口口口 |③---|
口口口① |④---|
49
口口口口 |①---|
口口口口 |----|
口①①口 |----|
口①①口 |----|

accuracy: 100%
最終更新:2022年07月01日 15:29