アットウィキロゴ
Juicy
kors k Lovers DJ Yoshitaka

ADVANCED

Level: 5
BPM: 125
Notes: 301

1
口口口口 |----|
口口口口 |----|
口口口口 |----|
口口口口 |----|
2
口口口口 |①---|
③②④⑤ |②-③-|
口口口口 |--④-|
①口口口 |⑤---|
3
口口口口 |①---|
口口口口 |②-③-|
③②④⑤ |--④-|
口口①口 |⑤---|
4
口口口口 |①---|
③②④⑤ |②-③-|
口口口口 |--④-|
口①口口 |⑤---|
5
口口口口 |①---|
口口口口 |②-③-|
③②口口
口口口①

口口口④
口口⑤口
口⑥口口 |--④-|
口口口口 |⑤-⑥-|
6
口口口口 |①---|
③②④⑤ |②-③-|
口口口口 |--④-|
①口口口 |⑤---|
7
口口口口 |①---|
口口口口 |②-③-|
③②④⑤ |--④-|
口口①口 |⑤---|
8
口口口口 |①---|
③②④⑤ |②-③-|
口口口口 |--④-|
口①口口 |⑤---|
9
⑤口口⑤ |①-②-|
口⑤⑤口 |③-④-|
①②③④ |----|
口口口口 |⑤---|
10
⑥口口口 |--①-|
口⑤口④ |②--③|
②口③口 |-④--|
口①口口 |⑤-⑥-|
11
口口口⑥ |--①-|
④口⑤口 |②--③|
口③口② |-④--|
口口①口 |⑤-⑥-|
12
⑥口口口 |--①-|
口⑤口④ |②--③|
②口③口 |-④--|
口①口口 |⑤-⑥-|
13
口⑤⑤口 |--①-|
④⑥⑥口 |②--③|
口③口② |-④--|
口口①口 |⑤-⑥-|
14
口⑥口口 |--①-|
口⑤④口 |②--③|
②口③口 |-④--|
①口口口 |⑤-⑥-|
15
口口⑥口 |--①-|
④口⑤口 |②--③|
③口口② |-④--|
口口口① |⑤-⑥-|
16
⑥口口口 |--①-|
⑤口口④ |②--③|
口②口③ |-④--|
口①口口 |⑤-⑥-|
17
口①①口 |①---|
口②②口 |②---|
口③③口 |③---|
口口口口 |----|
18
口口口口 |----|
②①③④ |①-②-|
①②④③ |----|
口口口口 |③-④-|
19
口②③口 |----|
口⑥口口 |①-②③|
口①⑤口 |--④-|
口④口口 |⑤-⑥-|
20
口口口口 |----|
④③①② |①-②-|
口口口口 |----|
③④②① |③-④-|
21
口④③口 |--①-|
口⑤口口 |②-③④|
口①⑥口 |--⑤-|
口⑦②口 |⑥-⑦-|
22
①②④③ |----|
②①③④ |①-②-|
口口口口 |----|
口口口口 |③-④-|
23
口③④口 |--①-|
口⑦口口 |②-③④|
口②⑥口 |--⑤-|
口⑤①口 |⑥-⑦-|
24
口口口口 |----|
③④②① |①-②-|
口口口口 |----|
④③①② |③-④-|
25
口④③口 |--①-|
口⑤口口 |②-③④|
口①⑥口 |--⑤-|
口⑦②口 |⑥-⑦-|
26
口口口口 |----|
口口口④ |①---|
口②口③ |②---|
口口①口 |③-④-|
27
口口口口 |--①-|
②口口口 |②---|
①口口口 |----|
口口口口 |----|
28
口口口口 |----|
④口口口 |①---|
③口②口 |②---|
口①口口 |③-④-|
29
口口口① |--①-|
口口口② |②-③-|
口④口③ |--④-|
口⑤口口 |⑤---|
30
口④④口 |----|
口口③口 |①---|
口②口口 |②---|
口口①口 |③-④-|
31
①口口口 |--①-|
②口⑥口 |②-③-|
③⑤口口 |--④-|
口口④口 |⑤-⑥-|
32
口②④口 |----|
①口口③ |--①-|
口口口口 |②---|
口口口口 |③-④-|
33
口口口口 |--①-|
口③③口 |②-③-|
口②②口
口①①口

口④④口
口口口口
口口口口 |④---|
口⑤⑤口 |⑤---|
34
①口口① |①---|
②口口② |②---|
③口口③ |③---|
④口口④ |④---|
35
口③③口 |①--②|
③②①③ |--③-|
口①②口
口口口口

口口口口
口口⑥口
口⑤口口 |--④-|
④口口口 |⑤-⑥-|
36
口口口口 |--①-|
①口口口 |②---|
口口口③ |③---|
口②④口 |④---|
37
口口口口 |①-②-|
口②口④ |③-④-|
①口③口 |----|
口⑤⑤口 |⑤---|
38
①口口① |①---|
②口口② |②---|
③口口③ |③---|
④口口④ |④---|
39
口③③口 |①--②|
③②①③ |--③-|
口①②口
口口口口

口口口口
口⑥口口
口口⑤口 |--④-|
口④口口 |⑤-⑥-|
40
口②口口 |----|
口口③① |--①-|
口④口口 |②-③-|
口口⑤口 |④-⑤-|
41
⑥口口口 |--①-|
口⑤口④ |②--③|
②口③口 |-④--|
口①口口 |⑤-⑥-|
42
口口口⑥ |--①-|
④口⑤口 |②--③|
口③口② |-④--|
口口①口 |⑤-⑥-|
43
⑥口口口 |--①-|
口⑤口④ |②--③|
②口③口 |-④--|
口①口口 |⑤-⑥-|
44
口口⑤口 |--①-|
④口口⑥ |②--③|
口③口② |-④--|
口口①口 |⑤-⑥-|
45
口⑦⑤口 |--①-|
口⑥④口 |②--③|
②口③口 |-④-⑤|
①口口口 |⑥-⑦-|
46
⑤口⑦口 |--①-|
④口⑥口 |②--③|
③口口② |-④-⑤|
口口口① |⑥-⑦-|
47
⑦口口⑤ |--①-|
⑥口口④ |②--③|
口②口③ |-④-⑤|
口①口口 |⑥-⑦-|
48
口⑤口⑥ |--①-|
口④口⑦ |②--③|
口③②口 |-④-⑤|
口口①口 |⑥-⑦-|
49
口口口口 |①---|
口口①口 |----|
口口①口 |----|
口①口口 |----|

accuracy: 100%
最終更新:2022年07月01日 15:48