アットウィキロゴ
Juicy
kors k Lovers DJ Yoshitaka

EXTREME

Level: 8
BPM: 125
Notes: 521

1
口口口口 |----|
口口口口 |----|
口口口口 |----|
口口口口 |----|
2
⑧口⑦⑥ |①-②-|
口口⑨口 |③-④⑤|
③口④⑤ |-⑥⑦-|
①口②口 |⑧-⑨-|
3
口⑧⑦⑥ |①-②-|
口口⑩⑨ |③④-⑤|
③④口⑤ |-⑥⑦⑧|
①口②口 |-⑨⑩-|
4
⑧口⑦⑥ |①-②-|
口口⑨口 |③-④⑤|
③口④⑤ |-⑥⑦-|
①口②口 |⑧-⑨-|
5
⑩⑨⑧⑦ |①-②-|
口口⑪口 |③④⑤⑥|
③④⑤⑥ |-⑦⑧⑨|
①口②口 |⑩-⑪-|
6
⑧口⑦⑥ |①-②-|
口口⑨口 |③-④⑤|
③口④⑤ |-⑥⑦-|
①口②口 |⑧-⑨-|
7
口⑧⑦⑥ |①-②-|
口口⑩⑨ |③④-⑤|
③④口⑤ |-⑥⑦⑧|
①口②口 |-⑨⑩-|
8
⑧口⑦⑥ |①-②-|
口口⑨口 |③-④⑤|
③口④⑤ |-⑥⑦-|
①口②口 |⑧-⑨-|
9
⑩口口⑩ |①-②-|
口⑨⑧口 |③④⑤⑥|
③④⑤⑥ |⑦-⑧⑨|
①⑦②口 |⑩---|
10
口口⑦⑦ |--①-|
⑤口②② |②--③|
口④⑥⑥ |-④-⑤|
③口①① |⑥-⑦-|
11
口口⑦⑦ |--①-|
口⑤②② |②--③|
④口⑥⑥ |-④-⑤|
口③①① |⑥-⑦-|
12
⑤口⑦⑦ |--①-|
口④②② |②--③|
③口⑥⑥ |-④-⑤|
口口①① |⑥-⑦-|
13
口⑤⑥⑥ |--①-|
④口②② |②--③|
口③⑦⑦ |-④-⑤|
口口①① |⑥-⑦-|
14
口口⑥⑦ |--①-|
⑤口①② |②--③|
口④⑦⑥ |-④-⑤|
③口②① |⑥-⑦-|
15
口口⑥⑦ |--①-|
口⑤①② |②--③|
④口⑦⑥ |-④-⑤|
口③②① |⑥-⑦-|
16
⑤口⑥⑦ |--①-|
口④①② |②--③|
③口⑦⑥ |-④-⑤|
口口②① |⑥-⑦-|
17
口③③口 |①---|
①③③② |②---|
口口口口 |③---|
口①②口 |----|
18
口口口② |①-②-|
④口③口 |③-④-|
①口③③
④口③③

口⑦口⑧
口⑦⑧⑤
⑦⑥口⑧ |⑤-⑥-|
口口口口 |⑦-⑧-|
19
口口⑤口 |①-②-|
⑧口口③ |③-④⑤|
口④⑦口 |--⑥-|
①⑥口② |⑦-⑧-|
20
口口④④ |①-②-|
口③口口 |③-④-|
③②④口
③口口①

口⑧口口
⑤⑧⑦⑦
口⑧口⑦ |⑤-⑥-|
口口⑥口 |⑦-⑧-|
21
②口⑤③ |①-②-|
口口⑥口 |③-④⑤|
口⑦①口 |--⑥-|
口④⑧口 |⑦-⑧-|
22
口口口口 |①-②-|
④口口③ |③-④-|
①口③②
④口口③

口⑦口⑧
口⑦⑧口
⑦⑥口⑧ |⑤-⑥-|
口口⑤口 |⑦-⑧-|
23
口⑧⑤口 |①-②-|
口口⑦③ |③-④⑤|
口⑥口口 |--⑥-|
①④口② |⑦-⑧-|
24
⑧⑦口口 |①-②-|
⑦③⑦④ |③-④-|
③⑤⑥③ |⑤-⑥-|
②③③① |⑦-⑧-|
25
口口⑤口 |①-②-|
口②口③ |③-④⑤|
口口口口
口④①口

口口口口
口口⑥口
口⑦口口 |--⑥-|
口口⑧口 |⑦-⑧-|
26
口口口① |①---|
口②口口 |②---|
口口②口
①口口口

③口口⑤
口口⑤④
④⑤口口 |③---|
⑤口口③ |④-⑤-|
27
口②口口 |--①-|
②①④口 |②---|
③口①② |③---|
口口②口 |④---|
28
口口口口 |①---|
④②③⑤ |②---|
口③②口 |③---|
⑤①口④ |④-⑤-|
29
口⑤⑤口 |--①-|
④①③④ |②-③-|
②⑤⑤② |--④-|
口③①口 |⑤---|
30
①口口口 |①---|
口口口口 |②---|
口口口口
口②②①

⑤⑤⑤⑤
口④④口
③口口③ |③---|
口口口口 |④-⑤-|
31
口⑥口口 |--①-|
①⑤④① |②-③-|
②④⑤② |--④-|
③口⑥③ |⑤-⑥-|
32
②③①④ |----|
口口口口 |--①-|
口口口口 |②---|
④①③② |③-④-|
33
④口④口 |--①-|
口③⑥③ |②-③-|
②⑤②口 |④-⑤-|
口①⑦① |⑥-⑦-|
34
口①②① |①---|
①②④③ |②---|
③口口② |③---|
④③口④ |④---|
35
口①②口 |①--②|
①③③② |--③-|
②③③①
口②①口

口口⑥口
⑤口口口
⑤口口⑥ |--④-|
口口④④ |⑤-⑥-|
36
口口③① |--①-|
口口口③ |②---|
④④①口 |③---|
②②口口 |④---|
37
口口④④ |①-②-|
③③⑥口 |③-④-|
口⑤②② |--⑤-|
①①⑦口 |⑥-⑦-|
38
口①②① |①---|
①②④③ |②---|
③口口② |③---|
④③口④ |④---|
39
口①②口 |①--②|
①③③② |--③-|
②③③①
口②①口

口口口口
⑥口口⑥
⑤口口⑤ |--④-|
④口口④ |⑤-⑥-|
40
③口②口 |----|
口①口口 |--①-|
③①④② |②-③-|
⑤⑤口④ |④-⑤-|
41
口口口口 |--①-|
⑤口②⑦ |②--③|
口④口口 |-④-⑤|
③口①⑥ |⑥-⑦-|
42
口口口口 |--①-|
口⑤②⑦ |②--③|
④口口口 |-④-⑤|
口③①⑥ |⑥-⑦-|
43
⑤口②⑦ |--①-|
口④口口 |②--③|
③口①⑥ |-④-⑤|
口口口口 |⑥-⑦-|
44
口⑤②⑥ |--①-|
④口口口 |②--③|
口③①⑦ |-④-⑤|
口口口口 |⑥-⑦-|
45
⑧口⑨⑨ |①-②-|
⑤⑦③③ |③--④|
③⑥⑧⑧ |⑤⑥-⑦|
①④②② |⑧-⑨-|
46
⑧⑦⑨⑨ |①-②-|
⑤⑥③③ |③--④|
③④⑧⑧ |⑤⑥-⑦|
①口②② |⑧-⑨-|
47
⑧口⑧⑨ |①-②-|
⑤⑦②③ |③--④|
③⑥⑨⑧ |⑤⑥-⑦|
①④③② |⑧-⑨-|
48
⑧⑦口⑧ |①-②-|
⑤⑥②③ |③--④|
③④口⑨ |⑤⑥-⑦|
①口③② |⑧-⑨-|
49
口口①口 |①---|
口口①口 |----|
①口①口 |----|
口①口口 |----|

accuracy: 100%
最終更新:2022年07月01日 15:58