アットウィキロゴ
リカーシブ・ファンクション
OSTER Project

BASIC

Level: 4
BPM: 145
Notes: 233

1
口口口口 |(145)----|
口口口口 |----|
口口口口 |----|
口口口口 |----|
2
口口口口 |----|
口口口口 |----|
口口口口 |----|
口口口口 |----|
3
口口口口 |(290)①---|
口①①口 |----|
口口口口 |----|
口口口口 |----|

口口口口
口口口口 |----|
口口口口 |----|
口口口口 |----|
4
口口口口 |①---|
口口口口 |----|
口①①口 |----|
口口口口 |----|

口口口口
口口口口 |----|
口口口口 |----|
口口口口 |----|
5
口口口口 |①---|
口①①口 |----|
口口口口 |----|
口口口口 |----|

口口口口
口口口口 |----|
口口口口 |----|
口口口口 |----|
6
②口口② |①---|
口口口口 |----|
口①①口 |----|
口口口口 |②---|

口口口口
口口口口 |----|
口口口口 |③---|
③口口③ |----|
7
口口口口 |①---|
口①①口 |----|
口口口口 |----|
口口口口 |----|

口口口口
口口口口 |----|
口口口口 |----|
口口口口 |----|
8
口口口口 |①---|
口口口口 |----|
口①①口 |----|
口口口口 |----|

口口口口
口口口口 |----|
口口口口 |----|
口口口口 |----|
9
口口口口 |①---|
口口口口 |----|
口口口口 |----|
口①①口 |----|

口口口口
口口口口 |----|
口口口口 |----|
口口口口 |----|
10
口口口口 |(145)①---|
①口口① |----|
口口③口 |②---|
口②口口 |③---|
11
①②③口 |①---|
口口口口 |②---|
口口口口 |③---|
口口口口 |----|
12
口口口口 |①---|
口③②① |②---|
口口口口 |③---|
口口口口 |----|
13
口口口口 |①---|
口口口口 |②---|
①②③口 |③---|
口口口口 |----|
14
口口口口 |①---|
口①①口 |----|
口口口口 |②---|
口②②口 |----|
15
①②口口 |①---|
口口③口 |②---|
口口口口 |③---|
口口口口 |----|
16
口口②① |①---|
口③口口 |②---|
口口口口 |③---|
口口口口 |----|
17
口口口口 |①---|
口口口口 |②---|
①②口口 |③---|
口口③口 |----|
18
口①①口 |①---|
口②②口 |--②-|
口口口口 |----|
口口口口
19
口口口口 |①---|
口口口口 |--②-|
口①①口 |----|
口②②口
20
口口口口 |①---|
①口口① |----|
口口口口 |②---|
②口口口
21
①口口② |①---|
口口③口 |②--③|
口④口口 |--④-|
口口口口
22
口口口口 |----|
口②口口 |----|
①口口口 |①---|
口口口口 |②---|
23
口口口口 |①---|
口口口② |②---|
口口①口 |③---|
口③口口
24
①口口① |①---|
口口③口 |----|
口口口口 |②---|
口口口② |③---|
25
口②②口 |①---|
口口口口 |--②-|
口①口口 |----|
口口口口
26
口口口口 |①---|
口③口口 |----|
①口口① |②---|
②口口口 |③---|
27
口口口② |①---|
口口口口 |②---|
口口①③ |③---|
口口口口
28
口口口③ |①---|
口①①口 |----|
口口口口 |②---|
②口口口 |③---|
29
口①口口 |①--②|
口②口口 |--③-|
口③口口 |④---|
口口④口
30
口口④口 |①--②|
②口口② |----|
口口口③ |③---|
①口口① |④---|
31
口口口口 |①---|
②口口口 |②---|
口口口口 |③---|
口①③口
32
②口④② |①--②|
口口口③ |----|
①口口① |③---|
口口口口 |④---|
33
口口口口 |①---|
口①口口 |②---|
②口口口 |③---|
口③口口
34
②口口② |①---|
口口口口 |--②-|
口①①口 |----|
口口口口
35
口口口口 |①---|
口②②口 |--②-|
口口口口 |----|
①口口①
36
①口口① |①---|
口口口口 |----|
口口口口
口口口口
37
口口口口 |①---|
口①①口 |----|
口①①口 |----|
口口口口 |----|
38
口口口口 |①---|
口②②口 |----|
口口口口 |--②-|
口①①口 |----|
39
口③口口 |①---|
口口口口 |②---|
口口②口 |③---|
①口口口 |----|
40
口口口口 |①---|
②口口① |②---|
口口口口 |③---|
口③口口 |----|
41
口③口口 |①---|
口口口口 |②---|
②口口① |③---|
口口④口 |④---|
42
口口口口 |①---|
口②口口 |②---|
①口③口 |③---|
口口口口 |----|
43
口口口① |①---|
口②口口 |②---|
口口口口 |③---|
口口③口 |----|
44
口口③口 |①---|
口口口口 |②---|
①口口② |③---|
口口口口 |----|
45
③口口③ |①---|
口口口口 |②---|
口口②口 |--③-|
口①口口 |----|
46
口口口口 |(290)①---|
口口口口 |----|
口①①口 |----|
口口口口 |----|

口口口口
口口口口 |----|
口口口口 |----|
口口口口 |----|
47
口口口口 |①---|
口①①口 |----|
口口口口 |----|
口口口口 |----|

口口口口
口口口口 |----|
口口口口 |----|
口口口口 |----|
48
口口口口 |(145)①---|
①口口① |--②-|
②口口② |----|
③口口③ |③---|
49
口口口口 |(290)①---|
口口口口 |----|
口①①口 |----|
口口口口 |----|

口口口口
口口口口 |----|
口口口口 |----|
口口口口 |----|
50
口口口口 |①---|
口①①口 |----|
口口口口 |----|
口口口口 |----|

口口口口
口口口口 |----|
口口口口 |----|
口口口口 |----|
51
口口口口 |(145)①---|
①口口② |----|
口口口口 |②---|
口②①口 |----|
52
口②①口 |①---|
口口口口 |----|
①口口② |②---|
口口口口 |----|
53
①口口① |①---|
口口口口 |----|
口口口口 |----|
口口口口 |----|
54
口口口口 |①---|
口口口口 |----|
口①①口 |----|
口①①口 |----|
55
口口口口 |----|
口口口口 |----|
口口口口
口口口口
56
口口口口 |①---|
①①①① |----|
口口口口 |----|
口口口口 |----|
57
②②口口 |①---|
口口口口 |----|
口口口口 |②---|
口口①① |----|
58
口③②口 |①---|
口口口口 |②---|
④口口① |③---|
口口口口 |④---|
59
口口口③ |①---|
口口②口 |②---|
口口口口 |③---|
口①口口 |----|
60
④口②口 |①---|
口口口口 |②---|
口③口① |③---|
口口口口 |④---|
61
口口口③ |①---|
口口口口 |②---|
①口口口 |③---|
口②口口 |----|
62
②口口② |①---|
口口口口 |----|
①口口① |②---|
口口口口 |----|
63
口②④口 |①---|
口口口口 |②---|
①口口③ |③---|
口口口口 |④---|
64
口口口口 |①---|
口口口口 |②---|
口②④口 |③---|
口①③口 |④---|
65
口口口口 |①---|
②口口④ |②---|
口口口口 |③---|
①口口③ |④---|
66
②口口④ |①---|
口①③口 |②---|
口口口口 |③---|
口口口口 |④---|
67
口口口口 |①---|
口②口口 |②---|
口口口④ |③---|
①口③口 |④---|
68
④口②口 |①---|
口口口① |②---|
③口口口 |③---|
口口口口 |④---|
69
口③③口 |①---|
口口②口 |②---|
口①口口 |--③-|
口口口口 |----|
70
④口口④ |①---|
口口口口 |②---|
③口口③ |----|
①口口② |③--④|

accuracy: 100%
最終更新:2022年06月26日 17:32