アットウィキロゴ
リカーシブ・ファンクション
OSTER Project

ADVANCED

Level: 7
BPM: 145
Notes: 377

1
口口口口 |(145)----|
口口口口 |----|
口口口口 |----|
口口口口 |----|
2
口口口口 |----|
口口口口 |----|
口口口口 |----|
口口口口 |----|
3
口口口口 |(290)①---|
口①①口 |----|
口①①口 |----|
口口口口 |----|

口口口口
口口口口 |----|
口口口口 |----|
口口口口 |----|
4
口口口口 |①---|
口口口口 |----|
①口口① |----|
口①①口 |----|

口口口口
口口口口 |----|
口口口口 |----|
口口口口 |----|
5
口①①口 |①---|
①口口① |----|
口口口口 |----|
口口口口 |----|

口口口口
口口口口 |----|
口口口口 |----|
口口口口 |----|
6
口④⑤口 |①-②-|
口口③口 |--③-|
口①②口 |--④-|
口口口口 |⑤---|

口口口口
口口口口 |----|
⑥口口⑥ |⑥---|
口口口口 |----|
7
口口口⑤ |①---|
口③口口 |②-③-|
口②④口 |--④-|
口口口① |--⑤-|

口口⑥口
口口口口 |--⑥-|
口口口口 |----|
口口口口 |----|
8
口口口⑤ |①---|
③口口口 |②-③-|
②口口④ |--④-|
口口①口 |--⑤-|

口口⑥口
口口口口 |--⑥-|
口口口口 |----|
口口口口 |----|
9
口口口⑤ |①---|
口③口口 |②-③-|
口②④口 |--④-|
口口口① |--⑤-|

口口⑥口
口口口口 |--⑥-|
口口口口 |----|
口口口口 |----|
10
⑥口口⑦ |(145)--①-②-|
口口①口 |③---|
口②口口 |④-⑤-|
④口③⑤ |⑥-⑦-|
11
⑤口⑥口 |①-②③|
⑦③②⑦ |-④-⑤|
①口口口 |-⑥--|
口口④口 |⑦---|
12
口⑥口⑤ |①-②③|
⑦②③⑦ |-④-⑤|
口口口① |-⑥--|
口④口口 |⑦---|
13
口⑥口⑤ |①-②③|
⑦②③⑦ |-④-⑤|
口口口① |-⑥--|
口④口口 |⑦---|
14
口口口③ |①②-③|
口⑥⑥口 |-④-⑤|
④②①口 |----|
口口口⑤ |⑥---|
15
⑤口⑥口 |①-②③|
口口口口 |-④-⑤|
⑦③②⑦ |-⑥--|
①口④口 |⑦---|
16
口⑥口⑤ |①-②③|
口口口口 |-④-⑤|
⑦②③⑦ |-⑥--|
口④口① |⑦---|
17
口⑥口⑤ |①-②③|
口口口口 |-④-⑤|
⑦②③⑦ |-⑥--|
口④口① |⑦---|
18
口③①口 |①--②|
口口口口 |--③-|
口口口口 |-④--|
口④②口
19
③口口① |①--②|
口口口口 |--③-|
口口口口 |-④--|
④口口②
20
口口口口 |①---|
口①①口 |----|
口口口口 |②---|
②口口口
21
②口口① |①---|
口③口口 |②--③|
口口④口 |--④-|
口口口口
22
口口口口 |----|
口口③口 |----|
口②口口 |①--②|
①口口口 |--③-|
23
口口口口 |①--②|
口①口口 |--③-|
口口②口 |④-⑤-|
口⑤④③
24
口④口口 |①---|
口口③口 |----|
口口口② |②--③|
①口口口 |--④-|
25
口口口口 |①---|
口口口口 |②-③-|
口①口口 |----|
③口口②
26
口口口口 |①---|
口①①④ |----|
口口③口 |②--③|
口②口口 |--④-|
27
口①②口 |①---|
口③口口 |②-③-|
口口④口 |④-⑤-|
口⑤口口
28
④口口① |①---|
口口口口 |②---|
口口口口 |③---|
③口口② |④---|
29
口口口① |①--②|
口口②口 |--③-|
口③口口 |④---|
口口口④
30
口口③⑥ |①--②|
口②⑤口 |--③-|
①④口口 |④--⑤|
口口口口 |--⑥-|
31
③④⑤口 |①--②|
口②口口 |--③-|
口口①口 |④-⑤-|
口口口口
32
口口口① |①--②|
口口②④ |--③-|
口③⑤口 |④--⑤|
口⑥口口 |--⑥-|
33
口口③口 |①--②|
口②④口 |--③-|
①口⑤口 |④-⑤-|
口口口口
34
②口口④ |①--②|
口口口口 |--③-|
口口口口 |-④--|
口③①口
35
口②④口 |①--②|
口口口口 |--③-|
口口口口 |-④--|
③口口①
36
口口口口 |①---|
口口口口 |②---|
口①②口
口口口口
37
口口口口 |①---|
①口口① |----|
口口口口 |----|
口口口口 |----|
38
口④③② |①--②|
口⑤⑤口 |-③-④|
口①口口 |--⑤-|
口口口口 |----|
39
口口口⑤ |①-②③|
③⑥⑥口 |-④-⑤|
②口④口 |----|
口口口① |⑥---|
40
⑤⑥⑥口 |①-②③|
口口口③ |-④-⑤|
口④口② |----|
①口口口 |⑥---|
41
口口口口 |①--②|
口③⑥口 |--③-|
口⑤②口 |④--⑤|
口①④口 |--⑥-|
42
⑤口口③ |①-②③|
口口口② |-④-⑤|
口口口口
①④口口

口⑥口口
口口口⑦
口⑧口口 |--⑥-|
口口口口 |⑦-⑧-|
43
口口口⑤ |①-②③|
③⑥⑥口 |-④-⑤|
②口④口 |----|
口口口① |⑥---|
44
⑤⑥⑦口 |①-②③|
口口口③ |-④-⑤|
口④口② |-⑥-⑦|
①口口口 |----|
45
③口口④ |①-②-|
口口口口 |③-④-|
口⑤⑤口 |--⑤-|
①口口② |----|
46
口口口口 |(290)①---|
①口口① |----|
口口口口 |----|
口①①口 |----|

口口口口
口口口口 |----|
口口口口 |----|
口口口口 |----|
47
口①①口 |①---|
口口口口 |----|
①口口① |----|
口口口口 |----|

口口口口
口口口口 |----|
口口口口 |----|
口口口口 |----|
48
①口口③ |(145)①--②|
⑤口口口 |--③-|
口口口⑥ |-④--|
口④②口 |⑤-⑥-|
49
口口口口 |(290)①---|
口口口口 |----|
口①①口 |----|
①口口① |----|

口口口口
口口口口 |----|
口口口口 |----|
口口口口 |----|
50
①口口① |①---|
口①①口 |----|
口口口口 |----|
口口口口 |----|

口口口口
口口口口 |----|
口口口口 |----|
口口口口 |----|
51
口口口口 |(145)①---|
口口口口 |②---|
①①③③ |③---|
④口口② |④---|
52
口口口口 |①---|
①①③③ |②---|
口口口口 |③---|
口④②口 |④---|
53
口①①口 |①---|
口口口口 |----|
口口口口 |----|
口口口口 |----|
54
①口口① |①--②|
口口口口 |-③-④|
②③④口 |----|
口口口口 |----|
55
口口口口 |----|
口口口口 |----|
口口口口
口口口口
56
口①①口 |①---|
①口口① |----|
口口口口 |----|
口口口口 |----|
57
口口口① |①--②|
口⑥口口 |-③-④|
②③④⑤ |-⑤-⑥|
口口口口 |----|
58
口口口口 |①--②|
口③⑥口 |--③-|
口⑤②口 |④--⑤|
口①④口 |--⑥-|
59
⑤口口③ |①-②③|
口口口② |-④-⑤|
口口口口
①④口口

口⑥口口
口口口⑦
口⑧口口 |--⑥-|
口口口口 |⑦-⑧-|
60
口口口⑤ |①-②③|
③⑥⑥口 |-④-⑤|
②口④口 |----|
口口口① |⑥---|
61
⑤⑥⑦口 |①-②③|
口口口③ |-④-⑤|
口④口② |-⑥-⑦|
①口口口 |----|
62
③⑥口④ |①-②-|
口口口口 |③-④-|
⑤口口口 |--⑤-|
①口⑦② |⑥-⑦-|
63
口口口⑤ |①-②③|
④⑥⑥② |-④-⑤|
口口口③ |----|
①口口口 |⑥---|
64
⑤⑥⑦口 |①-②③|
②口口④ |-④-⑤|
③口口口 |-⑥-⑦|
口口口① |----|
65
口口口口 |①--②|
③口口⑥ |--③-|
⑤口口② |④--⑤|
①口口④ |--⑥-|
66
⑤口③口 |①-②③|
口口②口 |-④-⑤|
口口⑥⑦ |--⑥-|
①④⑧口 |⑦-⑧-|
67
⑤口口口 |①-②③|
②⑥⑥④ |-④-⑤|
③口口口 |----|
口口口① |⑥---|
68
口⑦⑥⑤ |①-②③|
④口口② |-④-⑤|
口口口③ |-⑥-⑦|
①口口口 |----|
69
③口口④ |①-②-|
口口口口 |③-④-|
口⑤⑤口 |--⑤-|
①口口② |----|
70
③口口② |①-②-|
口口口口 |③-④-|
口口口口
④口口①

⑥口口⑥
口口口口
⑤口口⑤ |----|
口口口口 |⑤--⑥|

accuracy: 100%
最終更新:2022年07月01日 15:19