アットウィキロゴ
リカーシブ・ファンクション
OSTER Project

EXTREME

Level: 9.5
BPM: 145
Notes: 610

1
口口口口 |(145)----|
口口口口 |----|
口口口口 |----|
口口口口 |----|
2
口⑧③⑦ |----|
口④①② |----|
口口⑤⑥ |①②③④|
口口口口 |⑤⑥⑦⑧|
3
口口⑤口 |(290)①---|
③口口口 |②-③-|
口①口口 |--④-|
②口口④ |--⑤-|

口口口口
口口口口 |--⑥-|
⑦⑧⑨⑥ |--⑦-|
口口口口 |⑧-⑨-|
4
口口⑤① |①---|
③口口口 |②-③-|
口口口口 |--④-|
②口口④ |--⑤-|

口口口口
口口口口 |--⑥-|
口⑨⑧⑦ |--⑦-|
口⑥口口 |⑧-⑨-|
5
①口⑤口 |①---|
③口口口 |②-③-|
口口口口 |--④-|
②口口④ |--⑤-|

口口口口
口口口⑨ |--⑥-|
口口⑧⑥ |--⑦-|
口口⑦口 |⑧-⑨-|
6
①口口⑤ |①-②-|
⑤口口口 |--③-|
③口口④ |--④-|
口口口② |⑤---|

口⑥⑥口
口口口口 |----|
口口⑧口 |⑥---|
口⑦口口 |⑦-⑧-|
7
口口⑤口 |①---|
口①口③ |②-③-|
口④口口 |--④-|
口口口② |--⑤-|

口口口口
口口口⑨ |--⑥-|
口口⑧口 |--⑦-|
口⑥⑦口 |⑧-⑨-|
8
③①口⑤ |①---|
口④口口 |②-③-|
②口口口 |--④-|
口口口口 |--⑤-|

口口口口
口口口⑦ |--⑥-|
口口⑧口 |--⑦-|
口⑥⑨口 |⑧-⑨-|
9
口⑤口③ |①---|
①口口口 |②-③-|
口口口② |--④-|
④口口口 |--⑤-|

⑨口口口
口⑧口口 |--⑥-|
口⑦口口 |--⑦-|
口口口⑥ |⑧-⑨-|
10
口③②① |(145)--①-②-|
口口口口 |③---|
口口口口
③②①口

⑧口⑨口
口⑥口⑦
④⑩口口 |④⑤⑥⑦|
口口⑪⑤ |⑧⑨⑩⑪|
11
口口口口 |①-②③|
①口口口 |-④-⑤|
口口③②
④口口⑤

口口⑧⑦
⑨⑥口口
口口口口 |-⑥-⑦|
口口口口 |⑧-⑨-|
12
口⑤口口 |①-②③|
⑦⑧口口 |-④-⑤|
②③⑥⑨ |-⑥-⑦|
口口①④ |⑧-⑨-|
13
⑥口③② |①-②③|
口口口⑤ |-④-⑤|
①口⑧⑦ |-⑥-⑦|
⑨④口口 |⑧-⑨-|
14
口口②① |①②-③|
口口口③ |-④-⑤|
口⑤口口
口口④口

口口⑪⑫
⑩⑨口口
口口⑦⑧ |-⑥⑦⑧|
⑥口口口 |⑨⑩⑪⑫|
15
①口口口 |①-②③|
⑨口口⑤ |-④-⑤|
④口⑧⑦ |-⑥-⑦|
口⑥③② |⑧-⑨-|
16
②③口口 |①-②③|
口⑤口口 |-④-⑤|
口口⑨⑥ |-⑥-⑦|
⑦⑧①④ |⑧-⑨-|
17
口⑥③② |①-②③|
⑨口口⑤ |-④-⑤|
①④口口 |-⑥-⑦|
口⑧⑦口 |⑧-⑨-|
18
①口③① |①--②|
④②口④ |--③-|
③口①③ |-④--|
②④口②
19
口①③① |①--②|
④②口④ |--③-|
③口①③ |-④--|
②④②口
20
①口口① |①---|
口口口口 |----|
口①①口 |②---|
口②口口
21
④③①② |①---|
口④口口 |②--③|
口口④③ |--④-|
口口口④
22
口口口口 |①---|
口口口口 |----|
口口口口
①口口口

②口口口
口口口口
口口口口 |②--③|
③口口④ |--④-|
23
口口口口 |①--②|
口②口① |--③-|
口口⑤口 |④-⑤-|
口③④口
24
口口口② |①---|
口口口口 |----|
口①口口 |②--③|
④口口③ |--④-|
25
口口口③ |①---|
①口口口 |②-③-|
口口口② |----|
口口口口
26
口②口③ |①---|
口口口口 |--②-|
口①①口 |③--④|
⑤口口④ |--⑤-|
27
口口②口 |①---|
①③口口 |②-③-|
口口④口 |④-⑤-|
口⑤口口
28
①口口① |①---|
口口口口 |②---|
口口口口
②口口口

口口口④
口③口口
口口口口 |③---|
口口口口 |④---|
29
①口②口 |①--②|
口③口④ |--③-|
②口口口 |④---|
口④口口
30
②口口② |①--②|
口口口③ |--③④|
口①①④
口口口口

⑦口口口
口口口口
口口口口 |⑤--⑥|
⑥口口⑤ |--⑦-|
31
口口①口 |①--②|
④⑤口口 |--③-|
③口②口 |④-⑤-|
口口口口
32
②①①② |①--②|
口口口口 |--③-|
口④⑤③ |④--⑤|
口口⑥口 |--⑥-|
33
口口口口 |①--②|
口②口③ |--③-|
口口口口 |④-⑤-|
⑤①口④
34
①口口口 |①-②③|
⑧⑥口⑦ |④⑤⑥-|
⑩④⑤⑨ |⑦⑧⑨⑩|
口②③口
35
⑦口⑤④ |①-②③|
⑧⑥口⑪ |④⑤⑥⑦|
口③⑩口 |⑧⑨⑩⑪|
口②⑨①
36
口①②口 |①---|
口口口口 |②---|
口口口口
口口口口
37
口口口口 |①---|
口口口口 |----|
①口口① |----|
口口口口 |----|
38
口口⑤⑥ |①②③④|
口②④口 |-⑤-⑥|
口⑦⑦口 |--⑦-|
①口口③ |----|
39
口口④② |①-②③|
口口口口 |-④-⑤|
①口⑤口
口③口口

口口⑫⑪
⑩⑦口⑨
口口口口 |-⑥⑦⑧|
⑥口⑧口 |⑨⑩⑪⑫|
40
⑤②⑨⑧ |①-②③|
口⑩口⑥ |-④-⑤|
口①口口 |-⑥-⑦|
④⑦口③ |-⑧⑨⑩|
41
口⑤口⑥ |①-②③|
①口口③ |-④⑤⑥|
④口口口
口口②口

口口口口
⑨口口⑨
口⑧⑧口 |⑦--⑧|
口⑦口口 |--⑨-|
42
⑤口③⑤ |①-②③|
口②口⑥ |-④-⑤|
口口⑦口 |--⑥-|
①④口⑧ |⑦-⑧-|
43
口口④② |①-②③|
口口口口 |-④-⑤|
①口⑤口
口③口口

口口⑫⑪
⑩⑦口⑨
口口口口 |-⑥⑦⑧|
⑥口⑧口 |⑨⑩⑪⑫|
44
⑤②⑨⑧ |①-②③|
口⑩口⑥ |-④-⑤|
口①口口 |-⑥-⑦|
④⑦口③ |-⑧⑨⑩|
45
口⑤口⑦ |-①②③|
⑧口口⑧ |④⑤⑥⑦|
④口⑥③ |--⑧-|
①口②口 |----|
46
口①①口 |(290)①---|
口口口口 |----|
①口口① |----|
口口口口 |----|

口口口口
口口口口 |----|
口口口口 |----|
口口口口 |----|
47
口⑤口口 |①-②-|
①口口④ |③-④-|
口②③口 |--⑤-|
⑥口口口 |--⑥-|

口口口口
口⑪口口 |--⑦-|
⑩口口⑦ |⑧-⑨-|
口⑨⑧口 |⑩-⑪-|
48
①口口③ |(145)①--②|
⑥口口⑤ |--③-|
口④②口 |-④--|
②⑤⑥④ |⑤-⑥-|
49
⑤口④口 |(290)①-②-|
口③口口 |③-④-|
②口口口 |--⑤-|
①⑥口口 |--⑥-|

口口口⑦
⑪口口⑧ |--⑦-|
口⑩⑨口 |⑧-⑨-|
口口口口 |⑩-⑪-|
50
⑥口④口 |①-②-|
口③口口 |③-④-|
②口口口 |--⑤-|
①⑤口口 |--⑥-|

口口⑪口
口⑩口口 |--⑦-|
口⑨口口 |⑧-⑨-|
口口⑧⑦ |⑩-⑪-|
51
⑤口口口 |(145)①---|
④口口⑧ |②-③-④-|
③口①⑦ |⑤---|
②口口⑥ |⑥-⑦-⑧-|
52
⑤⑤口① |①---|
④口口⑧ |②-③-④-|
③⑤①⑦ |⑤---|
②口口⑥ |⑥-⑦-⑧-|
53
口口①① |①---|
口口口口 |----|
口口①口 |----|
口①口口 |----|
54
③口⑥④ |①②③④|
①口口⑤ |-⑤-⑥|
①③④②
口口口②

口⑪口⑬
口口口口
⑩口⑫⑨ |-⑦⑧⑨|
⑦口⑧口 |⑩⑪⑫⑬|
55
口口口口 |----|
口口口口 |----|
口口口口
口口口口
56
②口口③ |①---|
①口口① |----|
口口口口 |--②-|
②①①③ |-③--|
57
口口口口 |①-②③|
口口口② |-④-⑤|
⑤①⑤口
④口③口

口⑥⑨⑥
口⑨口口
口⑦口口 |-⑥-⑦|
口口口⑧ |⑧-⑨-|
58
口⑤口⑥ |①-②③|
①口口③ |-④⑤⑥|
④口口口
口口②口

口口口口
⑨口口⑨
口⑧⑧口 |⑦--⑧|
口⑦口口 |--⑨-|
59
⑤口③⑤ |①-②③|
口②口⑥ |-④-⑤|
口口⑦口 |--⑥-|
①④口⑧ |⑦-⑧-|
60
口口④② |①-②③|
口口口口 |-④-⑤|
①口⑤口
口③口口

口口⑫⑪
⑩⑦口⑨
口口口口 |-⑥⑦⑧|
⑥口⑧口 |⑨⑩⑪⑫|
61
⑤②⑨⑧ |①-②③|
口⑩口⑥ |-④-⑤|
口①口口 |-⑥-⑦|
④⑦口③ |-⑧⑨⑩|
62
口⑤⑨⑦ |-①②③|
⑧口口⑧ |④⑤⑥⑦|
④口⑥③ |--⑧-|
①⑩②口 |⑨-⑩-|
63
⑤口口② |①-②③|
口口口口 |-④-⑤|
①④口③
口口口口

口口口⑪
⑧⑦口⑥
⑨口⑫口 |-⑥⑦⑧|
口⑩口口 |⑨⑩⑪⑫|
64
⑤②⑨⑧ |①-②③|
口⑩口⑥ |-④-⑤|
口①口口 |-⑥-⑦|
④⑦口③ |-⑧⑨⑩|
65
口⑤口⑥ |①-②③|
①口口③ |-④⑤⑥|
④口口口
口口②口

口口口口
⑨口口⑨
口⑧⑧口 |⑦--⑧|
口⑦口口 |--⑨-|
66
⑤口③⑤ |①-②③|
口②口⑥ |-④-⑤|
口口⑦口 |--⑥-|
①④口⑧ |⑦-⑧-|
67
口口④② |①-②③|
口口口口 |-④-⑤|
①口⑤口
口③口口

口口⑫⑪
⑩⑦口⑨
口口口口 |-⑥⑦⑧|
⑥口⑧口 |⑨⑩⑪⑫|
68
⑤②⑨⑧ |①-②③|
口⑩口⑥ |-④-⑤|
口①口口 |-⑥-⑦|
④⑦口③ |-⑧⑨⑩|
69
口⑤口⑦ |-①②③|
⑧口口⑧ |④⑤⑥⑦|
④口⑥③ |--⑧-|
①口②口 |----|
70
口口口口 |①②③④|
⑥⑤口口 |⑤⑥⑦⑧|
②①④口
⑦③⑧口

口⑨⑩⑨
口⑩⑩⑩
口⑨⑩⑨ |----|
口口口口 |⑨--⑩|

accuracy: 100%
最終更新:2022年07月01日 15:19