アットウィキロゴ
海神
兎々

EXTREME

Level: 10.4
BPM: 159
Notes(hold): 872(59)

1
口①口① |①---|
口口口口 |----|
口口口口 |----|
口口口∧ |②-③-|

口口口②
口口③口
口②口口
口口口口
2
∨口口口 |①---|
口口口口 |----|
口口口口 |----|
①口①口 |②-③-|

口口口口
口③口口
口口②口
②口口口
3
口口口口 |①---|
口口口∨ |----|
口口口口 |②---|
口①口① |③---|

口口口口
②口②口
口③口口
∧口口②
4
口口∨口 |①---|
①口口口 |----|
口口口口 |----|
①口①口 |②-③-|

②口口口
口③口口
口口口口
口口②口
5
∨口口口 |①---|
口口口口 |----|
①口①口 |②---|
口口口口 |--③④|

口口②口
③口口②
②④口口
口口口口
6
∨口口① |①---|
口口②③ |-----②--|
口口口口 |-------③|
①口口口 |----|
7
口③④口 |-①-------------②|
口⑤口口 |-----③|
口口①② |---------④------|
口口口口 |-----⑤----------|
8
口口口口 |-①----------|
口口①口 |-②------|
口②③口 |--③-|
④口口口 |④---|
9
⑨④⑤⑧ |①②-③|
口⑦口口 |--④⑤|
③⑩⑥③ |-⑥⑦⑧|
口①②口 |-⑨-⑩|
10
口⑥⑤口 |①-②-|
②④③② |③④⑤⑥|
口口口口 |-⑦⑧⑨|
①口口① |-⑩-⑪|

⑧口口⑨
⑩口口口
口口⑦口
口口口⑪
11
⑨④⑤⑧ |①②-③|
口⑦口口 |--④⑤|
③⑩⑥③ |-⑥⑦⑧|
口①②口 |-⑨-⑩|
12
口⑥⑤口 |①-②-|
②④③② |③④⑤⑥|
口口口口 |-⑦⑧⑨|
①口口① |⑩⑪⑫⑬|

⑧口口⑨
⑫口口⑬
口口⑦口
⑩口口⑪
13
⑨④⑤⑧ |①②-③|
口⑦口口 |--④⑤|
③⑩⑥③ |-⑥⑦⑧|
口①②口 |-⑨-⑩|
14
口⑥⑤口 |①-②-|
②④③② |③④⑤⑥|
口口口口 |-⑦⑧⑨|
①口口① |-⑩-⑪|

⑧口口⑨
⑩口口口
口口⑦口
口口口⑪
15
⑨④⑤⑧ |①②-③|
口⑦口口 |--④⑤|
③⑩⑥③ |-⑥⑦⑧|
口①②口 |-⑨-⑩|
16
⑫⑯⑪⑮ |①②③④|
④⑧③⑦ |⑤⑥⑦⑧|
⑩⑭⑬⑨ |⑨⑩⑪⑫|
②⑥⑤① |⑬⑭⑮⑯|
17
口口口口 |----|
④③②① |----|
口口口口 |----|
口口口口 |①②③④|
18
口⑦②口 |①-②-|
口⑨⑨口 |③④⑤⑥|
③④⑤⑥ |⑦-⑧-|
①口口⑧ |⑨---|
19
②③口⑪ |①-②③|
⑩⑨⑧⑦ |④-⑤⑥|
⑤⑥口④ |⑦⑧⑨⑩|
口口①口 |⑪---|
20
口⑦②口 |①-②-|
口⑨⑨口 |③④⑤⑥|
③④⑤⑥ |⑦-⑧-|
①口口⑧ |⑨---|
21
②口③⑦ |①-②③|
⑥口口口 |④⑤⑥⑦|
口口口⑤ |⑧⑨⑩⑪|
④口①口 |⑫⑬⑭⑮|

口⑧⑮口
口⑨⑭口
口⑬⑩口
口⑫⑪口
22
口口口② |①-②-|
③④口口 |③④⑤⑥|
①口⑤⑥ |⑦-⑧-|
口口口口 |⑨---|

口⑦口口
口口口⑨
⑨口口口
口口⑧口
23
②③⑪⑪ |①-②③|
⑥口⑧⑦ |④-⑤⑥|
⑩⑨④口 |⑦⑧⑨⑩|
⑤口口① |⑪---|
24
口⑦口⑩ |①-②-|
③④口口 |③④⑤⑥|
口口⑤⑥ |⑦-⑧-|
⑨①⑧② |⑨-⑩-|
25
①⑤⑨⑬ |①②③④|
口⑪⑦③ |⑤⑥⑦⑧|
②⑥⑩口 |⑨⑩⑪⑫|
⑬⑫⑧④ |⑬---|
26
③④⑤⑥ |①-②-|
口⑨②⑦ |③④⑤⑥|
①口口口 |⑦-⑧-|
⑧口口口 |⑨---|
27
口④⑦⑪ |①-②③|
口口⑧口 |④-⑤⑥|
①⑥⑨③ |⑦⑧⑨⑩|
口⑤⑩② |⑪---|
28
③④⑤⑥ |①-②-|
口②⑨⑦ |③④⑤⑥|
口口口口 |⑦-⑧-|
①⑧口口 |⑨---|
29
⑦口口口 |①-②③|
⑥①口③ |④⑤⑥⑦|
⑤口口② |⑧⑨⑩⑪|
④口口口 |⑫⑬⑭⑮|

口⑧⑮口
口⑭⑨口
口⑩⑬口
口⑫⑪口
30
②⑦口⑥ |①-②-|
口口⑨⑤ |③④⑤⑥|
①口口④ |⑦-⑧-|
口⑧口③ |⑨---|
31
⑪⑦④口 |①-②③|
口⑧口口 |④-⑤⑥|
③⑨⑥① |⑦⑧⑨⑩|
②⑩⑤口 |⑪---|
32
口口⑦⑥ |①-②-|
②口⑩⑤ |③④⑤⑥|
⑨口口④ |⑦-⑧-|
①⑧口③ |⑨-⑩-|
33
①⑤口⑥ |①②③④|
口⑦口② |⑤⑥⑦⑧|
口③⑧口 |⑨⑩⑪⑫|
口口④口 |⑬⑭⑮⑯|

⑮口⑩口
⑨口⑯口
⑬口口⑫
口⑪口⑭
34
口①口① |①-②-|
口④口口 |③-④-|
口口③口 |⑤---|
②口口∧ |⑥-⑦-|

口口口⑥
口口⑦口
口⑥口口
口⑤口口
35
∨口口口 |①-②-|
口口口③ |③-④-|
口口口② |⑤---|
①口①口 |⑥-⑦-|

口口⑤口
④⑦口口
口口⑥口
⑥口口口
36
口口口口 |①-②-|
口口口∨ |③-④-|
②口口口 |⑤---|
口①口① |⑥---|

口④口口
⑤口⑤口
口⑥口③
∧口口⑤
37
口口∨口 |①-②-|
①口口口 |③-④⑤|
②口口口 |⑥---|
①口①口 |----|

④口口口
口⑤口③
口口⑥口
口口④口
38
⑨口口⑩ |①②③④|
⑧⑦③④ |⑤⑥⑦⑧|
①②⑥⑤ |⑨-⑩-|
⑪口口⑫ |⑪-⑫-|
39
⑨口口⑩ |①②③④|
⑧②⑥④ |⑤⑥⑦⑧|
①⑦③⑤ |⑨-⑩-|
⑪口口⑫ |⑪-⑫-|
40
③⑤⑤口 |①-②-|
口⑦②⑨ |③-④-|
⑥④⑧口 |⑤---|
口①口口 |⑥⑦⑧⑨|
41
口口⑤③ |①-②-|
①⑤口口 |③-④-|
口口⑦④ |⑤---|
②⑥口口 |--⑥⑦|
42
①②⑥⑤ |①②③④|
⑧⑦③④ |⑤⑥⑦⑧|
⑨口口⑩ |⑨-⑩-|
口⑪⑫口 |⑪-⑫-|
43
①⑦③⑤ |①②③④|
⑧②⑥④ |⑤⑥⑦⑧|
口口口口 |⑨-⑩-|
口口口口 |⑪-⑫-|

口口⑫口
口⑪口口
口口口⑩
⑨口口口
44
①口口口 |①-②-③-|
口口口④ |④-⑤-⑥-|
①⑥⑤口 |⑦-⑧-⑨-|
口②③口 |⑩-⑪-⑫-|

口⑨⑩口
⑧口⑫口
口口口口
⑦⑪口口
45
④口⑦① |①-②-③-|
⑩⑤⑫⑧ |④-⑤-⑥-|
口③⑥① |⑦-⑧-⑨-|
口⑪②⑨ |⑩-⑪-⑫-|
46
①口口① |①---|
口口口口 |----|
①口口① |②---|
口口口口 |③---|

>口②口
口口③②
③口口口
②③口∧
47
口②②口 |①---|
②①口② |②---|
口①①口 |----|
口口口口 |③④⑤⑥|

口口口⑥
口④⑤口
③口口口
口口口口
48
①①口口 |①---|
口口口口 |A-②③|
∧∧口口 |④-⑤-|
口口口口 |⑥-⑦-|

AA口口
口口口口
口③②口
口口口口

口口>⑦
⑥<口口
口口>⑤
④<口口

口口口口
⑦口口口
口口口⑥
⑤口口口
49
口口口① |①---|
口①①口 |A-②③|
口口口口 |④---|
口∧∧口 |--B-|

口口口口
口AA口
口口口口
口口口口

口口∨口
口口口口
②口④口
口③口口

口口口口
口口口口
口口B口
口口口口
50
⑧④口③ |①--②|
①②⑥口 |③-④-|
口⑦口③ |⑤-⑥-|
①口口⑤ |⑦-⑧-|
51
口口①口 |①---|
>∨口① |②---|
②口<口 |③---|
口②∧口 |④⑤⑥⑦|

⑦口③口
口⑥③③
③③⑤口
口③口④
52
口①口① |①---|
口口口口 |----|
口∧口∧ |A-②③|
口口口口 |④-⑤-|

口A口A
口口②口
口③口口
④口口⑤
53
口口口口 |①---|
①口口① |A-②③|
口口口口 |④--⑤⑥⑦|
∧口口∧ |⑧-⑨-|

④口⑤口
A③⑥A
②口⑦口
⑨口⑧口
54
⑤⑩口口 |①---|
⑨④口⑥ |②③④⑤|
③⑧口口 |⑥---|
⑦②口① |⑦⑧⑨⑩|
55
口口②① |①-②-|
口口口口 |③-④-|
④口③② |⑤---|
口④③口 |⑥⑦⑧⑨|

口⑦口⑨
⑥⑤⑧口
口⑤口口
口口口口
56
①口①口 |①---|
口口口口 |A-②③|
∧口∧口 |④-⑤-|
口口口口 |⑥-⑦-|

A口A口
口口口②
口口③口
口口口口

口口>⑦
⑥<口口
口口>⑤
④<口口

口口口口
⑦口口口
口口口⑥
⑤口口口
57
口∨口① |①---|
口口口口 |A-②③|
口①口口 |④⑤⑥⑦|
口口口口 |⑧⑨⑩⑪|

⑧④⑨⑦
⑥⑩⑤⑪
口A②口
口口③口
58
口④口口 |①--②|
口口④口 |③-④-|
②口③口 |⑤-⑥-|
①①口口 |⑦-⑧-|

⑧口⑥⑧
⑥口口口
口⑤口⑦
⑦口口⑤
59
口口口口 |①-A-|
>①>① |②-B-|
②<②< |③---|
口口口口 |④⑤⑥⑦|

口口口⑦
④A⑥A
B⑤B口
口③③口
60
①①口口 |①---|
口口口口 |----|
∧∧口口 |A-②③|
口口口口 |④-⑤⑥|

AA口口
口⑥口③
⑤口②口
口口口④
61
⑨⑧⑦⑥ |①---|
②口⑤口 |②-③④|
口⑩口④ |⑤--⑥⑦⑧|
②①③口 |⑨-⑩-|
62
⑧⑯⑫⑪ |①②③④|
⑮⑦⑩⑨ |⑤⑥⑦⑧|
⑥⑭④③ |⑨⑩⑪⑫|
⑬⑤②① |⑬⑭⑮⑯|
63
④口⑤口 |①-②③|
口⑥⑥③ |④-⑤-|
②⑦⑦口 |⑥---|
口口①口 |⑦---|
64
口∨∨① |①②-③|
口口口口 |--④⑤|
口口口口 |-⑥⑦⑧|
口①①口 |-⑨-⑩|

口口②口
口③⑤④
口口口口
口口口口

⑦口⑨口
⑩口口口
⑥⑧口口
口口口口
65
口口口口 |①-②-|
口①⑥⑤ |③④⑤⑥|
口口④③ |-⑦⑧⑨|
口①①② |-⑩-⑪|

⑧口口口
口口口口
⑦⑨口口
⑪口⑩口
66
口口②① |①②-③|
口③⑤④ |--④⑤|
口口口口 |-⑥⑦⑧|
口口口口 |-⑨-⑩|

⑦口⑨口
⑩口口口
⑥⑧口口
口口口口
67
⑧⑩口口 |①-②-|
⑫①⑥⑤ |③④⑤⑥|
⑦⑨④③ |-⑦⑧⑨|
⑪⑬口② |⑩⑪⑫⑬|
68
口口②① |①②-③|
口③⑤④ |--④⑤|
口口口口 |-⑥⑦⑧|
口口口口 |-⑨-⑩|

⑦口⑨口
⑩口口口
⑥⑧口口
口口口口
69
⑧口口口 |①-②-|
口①⑥⑤ |③④⑤⑥|
⑦⑨④③ |-⑦⑧⑨|
⑪口⑩② |-⑩-⑪|
70
口口②① |①②-③|
口③⑤④ |--④⑤|
口口口口 |-⑥⑦⑧|
口口口口 |-⑨-⑩|

⑦口⑨口
⑩口口口
⑥⑧口口
口口口口
71
口口口口 |①-②-|
口①口口 |③④⑤⑥|
口口口口 |--⑦-|
口∧口口 |⑧---|

口⑧⑧口
口⑧⑥⑤
口口④③
口⑦⑦②
72
口口口① |①②-③|
口口口口 |--④⑤|
口口口口 |-⑥⑦⑧|
口口口∧ |A⑨⑩⑪|

②⑧口A
④口⑦口
⑥③③⑩
⑤⑨⑪口
73
口口口∨ |①-②-|
口口口口 |③④⑤⑥|
口口口口 |-⑦⑧⑨|
口口口① |A⑩⑪⑫|

⑩⑧口口
⑫⑤⑥⑨
⑦③④⑪
②口口A
74
口口口口 |①②-③|
口②口口 |④-⑤⑥|
口口③口 |-⑦⑧⑨|
口口①口 |-⑩-⑪|

∨∨口口
口口口口
口口口口
④④口口

⑧口⑩口
⑪口⑥⑤
⑦⑨口口
口口口口
75
口口口口 |①-②-|
口①⑥⑤ |③④⑤⑥|
口口④③ |-⑦⑧⑨|
①①口② |⑩⑪⑫⑬|

口⑫⑩口
⑧⑪口口
⑦口口口
口⑨⑬口
76
①口口口 |①②-③|
口口口口 |--④⑤|
口口口口 |-⑥⑦⑧|
∧口口口 |A⑨⑩⑪|

A口⑧②
口⑦口④
⑩③③⑥
口⑪⑨⑤
77
∨口口口 |①-②-|
口口口口 |③④⑤⑥|
口口口口 |-⑦⑧⑨|
①口口口 |A⑩⑪⑫|

口口⑧⑩
口⑥⑤⑫
⑨④③⑦
A⑪口②
78
①口口口 |①-②-|
口口口口 |③-④-|
口口口口 |⑤-⑥-|
∧口口口 |⑦-⑧-|

口口口口
③⑦③⑦
⑤口④⑧
口口②⑥
79
口①口口 |①②③④|
⑦口口口 |⑤⑥⑦⑧|
④⑥口口 |⑨⑩⑪⑫|
②③⑤⑧ |⑬⑭⑮⑯|

⑬⑬⑮⑯
口⑩⑫⑭
口口⑨⑪
口口口口
80
∨∨∨口 |----|
①①①口 |----|
>①口口 |①---|
口①<口 |----|
81
口口口口 |----|
口口口口 |----|
口口口口 |----|
口口口口 |----|
82
口口口口 |----|
口口口口 |----|
口口口口 |----|
口口口口 |----|
83
口口口口 |①---|
①①①口 |----|
口①口口 |----|
口①口口 |----|
最終更新:2022年06月24日 09:19