アットウィキロゴ
鋳鉄の檻
小寺可南子,ランコ,SARAH by BEMANI Sound Team "Yvya"

BASIC

Level: 4
BPM: 200
Notes: 335

1
口口口口 |----|
口口口口 |----|
口口口口 |----|
口口口口 |----|
2
①口口口 |①---|
口②口口 |②---|
口口③口 |③---|
⑤⑤口④ |④-⑤-|
3
口口口口 |----|
口口口口 |----|
口口口口 |----|
口口口口 |----|
4
口口口口 |----|
口口口口 |----|
口口口口 |----|
口口①① |--①-|
5
口口口口 |----|
口口口口 |----|
口①②口 |----|
口口口口 |①-②-|
6
口口口口 |----|
口口口口 |----|
口口口口 |----|
①①口口 |--①-|
7
口口口口 |----|
口口口口 |----|
口口口口 |----|
口口口口 |----|
8
口口口口 |----|
口口口口 |----|
口口口口 |----|
口口①① |--①-|
9
口口口口 |----|
口口口口 |----|
口口口口 |----|
口口口口 |----|
10
④口口④ |①---|
口③③口 |②---|
口②②口 |③---|
口①①口 |--④-|
11
口口口口 |----|
口口口口 |①---|
口①口口 |②---|
③口②口 |③---|
12
口④④口 |①---|
口口③口 |②---|
②口①口 |③---|
口口口口 |--④-|
13
口口口口 |----|
口口口口 |①---|
口口①口 |②---|
口②口③ |③---|
14
④口口④ |①---|
口③口口 |②---|
口①口② |③---|
口口口口 |--④-|
15
口口口口 |----|
口口口口 |①---|
口①口口 |②---|
③口②口 |③---|
16
口④④口 |①---|
口口③口 |②---|
②口①口 |③---|
口口口口 |--④-|
17
口口口口 |----|
口口口口 |①---|
口口①口 |②---|
口②口③ |③---|
18
④口口④ |①---|
口③口口 |②---|
口①口② |③---|
口口口口 |--④-|
19
口口口口 |----|
口口口口 |----|
口口口口 |----|
口口口口 |----|
20
口口口口 |①---|
口口口口 |----|
②②口口 |②---|
①①口口 |----|
21
口口口② |①---|
①①口口 |----|
口口口口 |----|
口口口口 |②---|
22
口①口口 |①---|
口口②口 |②---|
口③口口 |③---|
口口④口 |④---|
23
口口口口 |①---|
②口口口 |----|
口口口口 |----|
口①口口 |②---|
24
口口口口 |①---|
口口口口 |----|
口口②② |②---|
口口①① |----|
25
口口②② |①---|
口口①① |----|
口口口口 |②---|
口口口口 |----|
26
③口口③ |①---|
口②②口 |----|
口①①口 |②---|
口口口口 |--③-|
27
口口口口 |----|
口口①口 |----|
口口口口 |----|
口口口口 |①---|
28
口口口口 |①---|
口口口口 |----|
②②口口 |②---|
①①口口 |----|
29
口口口② |①---|
①①口口 |----|
口口口口 |----|
口口口口 |②---|
30
口①口口 |①---|
口口②口 |②---|
口③口口 |③---|
口口④口 |④---|
31
口口口口 |①---|
③口口口 |②---|
口口②口 |----|
口①口口 |③---|
32
口口口口 |①---|
口口口口 |②---|
④口口③ |③---|
②口口① |④---|
33
④口口③ |①---|
②口口① |②---|
口口口口 |③---|
口口口口 |④---|
34
③口口③ |①---|
口②②口 |----|
口①①口 |②---|
口口口口 |--③-|
35
口口口口 |----|
口口口口 |----|
口口口口 |----|
口口口口 |----|
36
①口口口 |----|
口②口口 |①---|
③口口口 |②---|
口口口口 |③---|
37
口口口口 |①---|
②口口口 |----|
口口口口 |②---|
口①口口 |----|
38
①口口② |①---|
口口③口 |②---|
口口口④ |③---|
口口口口 |④---|
39
口口口口 |①---|
口口口② |----|
口口口口 |②---|
口口①口 |----|
40
口口口① |①---|
④口口口 |②---|
口③口口 |③---|
②口口口 |④---|
41
口①口口 |①---|
口口口口 |----|
②口口口 |②---|
口口口口 |----|
42
①口口① |①---|
口口口口 |----|
口②②口 |②---|
口口口口 |----|
43
口口口口 |①---|
口①①口 |----|
口口口口 |②---|
②口口② |----|
44
口口口① |----|
口口②口 |①---|
口口口③ |②---|
口口口口 |③---|
45
口口口口 |①---|
口口口② |----|
口口口口 |②---|
口口①口 |----|
46
②口口① |①---|
口③口口 |②---|
④口口口 |③---|
口口口口 |④---|
47
口口口口 |①---|
②口口口 |----|
口口口口 |②---|
口①口口 |----|
48
①口口口 |①---|
口口口口 |----|
口口口口 |----|
口口口口 |----|
49
口口口口 |----|
口口口口 |----|
口口口口 |----|
口口口口 |----|
50
口②①口 |①---|
口④③口 |②---|
口口口口 |③---|
口口口口 |④---|
51
口口口口 |①---|
口口口⑤ |②---|
口②①口 |③---|
口④③口 |④-⑤-|
52
①口口口 |----|
口口②口 |①---|
口③口口 |②---|
口口口口 |③---|
53
口口口口 |①---|
口②口③ |②---|
口口口口 |----|
口口口① |③---|
54
口口口口 |①---|
口②②口 |----|
口口口口 |②---|
口①①口 |----|
55
②口口② |①---|
口口口口 |----|
①口口① |②---|
口口口口 |----|
56
口口口口 |①---|
口①①口 |----|
口①①口 |----|
口口口口 |----|
57
口口口口 |----|
口口口口 |----|
口口口口 |----|
口口口口 |----|
58
①口口口 |①---|
口②口口 |②---|
口口③口 |③---|
⑤⑤口④ |④-⑤-|
59
③③③③ |--①-|
②②①① |②---|
口口口口 |----|
口口口口 |--③-|
60
口口口口 |----|
②口①③ |①---|
③①口② |②---|
口口口口 |③---|
61
口④④口 |①---|
口③③口 |②---|
口②②口 |③---|
口①①口 |④---|
62
①口口① |①---|
③口口③ |②---|
②口口② |③---|
④口口④ |④---|
63
口口口口 |①---|
口①①口 |----|
②①①③ |②---|
口口口口 |③---|
64
口口④口 |①---|
口③口口 |②---|
口口②口 |③---|
口①口口 |④---|
65
①口口口 |①---|
口口口② |②---|
③口口口 |③---|
口口口④ |④---|
66
口口口④ |①---|
口口③口 |②---|
口②口口 |③---|
①口口口 |④---|
67
①口口口 |①---|
口②口口 |②---|
口口口口
口口口口

④④④④
口口口口
口口③口 |③---|
口口口口 |--④-|
68
口口口口 |----|
②口①③ |①---|
③①口② |②---|
口口口口 |③---|
69
口④④口 |①---|
口③③口 |②---|
口②②口 |③---|
口①①口 |④---|
70
①口口① |①---|
③口口③ |②---|
②口口② |③---|
④口口④ |④---|
71
口①口口 |①---|
⑤口②口 |②---|
口③口口 |③---|
口口④口 |④-⑤-|
72
口口口口 |----|
口口口③ |①---|
口口口② |②---|
口口口① |③---|
73
口口口口 |①---|
③口口口 |②---|
②口④口 |③---|
①口口口 |④---|
74
①口口② |①---|
口③④口 |②---|
口口口口 |③---|
口口口口 |④---|
75
口口口口 |①---|
口口口口 |②---|
①口口② |③---|
口③④口 |④---|
76
口②②口 |①---|
口①口口 |----|
口口口口 |②---|
口口口口 |----|
77
②口口② |①---|
口口口口 |----|
口口①口 |②---|
口口口口 |----|
78
口②②口 |①---|
口口口口 |----|
口口口口 |②---|
口①①口 |----|
79
②口口② |①---|
口口口口 |----|
①①①① |----|
口口口口 |--②-|
80
口口口口 |----|
口口口口 |①---|
口①口口 |②---|
③口②口 |③---|
81
口④④口 |①---|
口口③口 |②---|
②口①口 |③---|
口口口口 |--④-|
82
口口口口 |----|
口口口口 |①---|
口口①口 |②---|
口②口③ |③---|
83
④口口④ |①---|
口③口口 |②---|
口①口② |③---|
口口口口 |--④-|
84
口口口口 |----|
口口口口 |①---|
口①口口 |②---|
③口②口 |③---|
85
口④④口 |①---|
口口③口 |②---|
②口①口 |③---|
口口口口 |--④-|
86
口口口口 |----|
口口口口 |①---|
口口①口 |②---|
口②口③ |③---|
87
④口口④ |①---|
口③口口 |②---|
口①口② |③---|
口口口口 |--④-|
88
口口口口 |----|
口口口口 |----|
口口口口 |----|
口口口口 |----|
89
①①口口 |①---|
口⑤②② |②---|
③③⑤口 |③---|
口口④④ |④-⑤-|

accuracy: 100%
最終更新:2023年07月10日 01:31