アットウィキロゴ
鋳鉄の檻
小寺可南子,ランコ,SARAH by BEMANI Sound Team "Yvya"

ADVANCED

Level: 7
BPM: 200
Notes: 556

1
口口口口 |----|
口口口口 |----|
口口口口 |----|
口口口口 |----|
2
⑦①④⑧ |①-②-|
口⑤②口 |③-④-|
口③⑥口 |⑤-⑥-|
口口口口 |⑦-⑧-|
3
口口口口 |----|
口口口口 |----|
口口口口 |----|
口口口口 |----|
4
口口口口 |----|
口口口口 |----|
口口口口 |----|
口①①口 |--①-|
5
口口口口 |----|
口①①口 |----|
口②②口 |----|
口口口口 |①-②-|
6
①口口② |----|
①③③② |----|
口口口口 |①-②-|
口口口口 |--③-|
7
口口口口 |----|
口口口口 |----|
口口口口 |----|
口口口口 |----|
8
①⑦④口 |--①-|
口⑤口② |②-③-|
③口⑥口 |④-⑤-|
口口口口 |⑥-⑦-|
9
口口口口 |--①-|
口④③口 |②-③-|
口②⑤口 |④-⑤-|
口⑥①口 |⑥---|
10
①⑦⑦口 |①-②-|
口⑤⑥② |③-④-|
③⑤⑥口 |⑤-⑥-|
口口口④ |--⑦-|
11
口口口口 |--①-|
口口④③ |②---|
⑤口口口 |③-④-|
①②口口 |--⑤-|
12
④③②① |①-②-|
口口口⑦ |③-④-|
口⑥⑤⑦ |⑤-⑥-|
口口口口 |--⑦-|
13
口①口口 |--①-|
口口口口 |②---|
③④⑤口 |--③-|
口口②口 |④-⑤-|
14
①②③④ |①-②-|
口⑤⑥⑦ |③-④-|
⑧口口口 |⑤-⑥-|
⑧口口口 |⑦-⑧-|
15
口口口口 |--①-|
③④口口 |②---|
口口②① |③-④-|
口口口⑤ |--⑤-|
16
①②③④ |①-②-|
⑧口口口 |③-④-|
⑧⑤⑥⑦ |⑤-⑥-|
口口口口 |⑦-⑧-|
17
口口①口 |--①-|
口②③口 |②-③-|
口⑥⑦口 |④-⑤-|
口④⑤口 |⑥-⑦-|
18
①口口口 |①-②-|
口⑤⑥② |③-④-|
③口口口 |----|
口口口④ |⑤-⑥-|
19
口口口口 |----|
口口口口 |----|
口口口口 |--①-|
①口口② |②---|
20
③口口③ |①---|
口②①口 |----|
口①②口 |②---|
口口口口 |--③-|
21
口口口口 |----|
口①口口 |----|
口口②口 |--①-|
口口口③ |②-③-|
22
口②③口 |①---|
口⑤口口 |②-③-|
口口口口 |--④-|
①④口口 |--⑤-|
23
①口口口 |----|
口口口② |----|
口口口口 |--①-|
③口口口 |②-③-|
24
③口口③ |①---|
口①②口 |----|
口②①口 |②---|
口口口口 |--③-|
25
口口口口 |----|
③口口② |①---|
②口口③ |②---|
口①①口 |③---|
26
②口③口 |①---|
口口①口 |----|
口①口口 |②---|
口③口② |--③-|
27
口口口① |----|
②口口口 |----|
口口口口 |--①-|
口口口③ |②-③-|
28
③口口③ |①---|
口②①口 |----|
口①②口 |②---|
口口口口 |--③-|
29
口口口口 |----|
口①口口 |----|
口口②口 |--①-|
口口口③ |②-③-|
30
口②③口 |①---|
口⑤口口 |②-③-|
口口口口 |--④-|
①④口口 |--⑤-|
31
④口口口 |--①-|
口口口⑤ |②-③-|
③②①口 |--④-|
⑥口口口 |⑤-⑥-|
32
④口②口 |①---|
口①口口 |--②-|
口③①口 |----|
口②口④ |③-④-|
33
口口口口 |----|
③口口② |①---|
②口口③ |②---|
口①①口 |③---|
34
②口③口 |①---|
口口①口 |----|
口①口口 |②---|
口③口② |--③-|
35
口口口口 |----|
口口口口 |----|
口口口口 |----|
口口口口 |----|
36
①①口口 |----|
口口②② |①---|
③③口口 |②---|
口口口口 |③---|
37
④口口⑤ |①---|
口②口口 |②---|
口口③口 |③---|
口口①① |④-⑤-|
38
口口口口 |----|
口口口口 |①---|
①②③口 |②---|
①②③口 |③---|
39
②④⑤③ |①---|
②口口③ |②---|
口口口① |③---|
口口口① |④-⑤-|
40
口口口口 |----|
口口③③ |①---|
②②口口 |②---|
口①①口 |③---|
41
①①口口 |①---|
口口④④ |②---|
口口②② |③---|
③③口口 |④---|
42
①口口口 |①---|
①口口口 |----|
口口口口
口口①①

口口②②
③③口③
②口口③ |②---|
②口口口 |--③-|
43
①①口口 |----|
口口②口 |①---|
口②①口 |②---|
口口①口 |----|
44
口口①① |----|
②②口口 |①---|
口口③③ |②---|
口口口口 |③---|
45
⑤⑤口口 |①---|
口口②② |②---|
③③口口 |③---|
①①④④ |④-⑤-|
46
口口口口 |----|
口③②① |①---|
口③②① |②---|
口口口口 |③---|
47
口口③⑤ |①---|
①口③口 |②---|
①④口② |③---|
口④口② |④-⑤-|
48
口口口口 |----|
口口口口 |----|
口口口口 |----|
口口口口 |----|
49
口口口口 |①-②-|
口⑤⑥⑦ |③-④-|
①②③④ |⑤-⑥-|
⑧⑧口口 |⑦-⑧-|
50
③②①口 |--①-|
口口口口 |②-③-|
⑦⑥⑤④ |④-⑤-|
口口口口 |⑥-⑦-|
51
⑦⑥⑤口 |①-②-|
④③②① |③-④-|
口口口口 |⑤-⑥-|
口口⑧⑧ |⑦-⑧-|
52
口口口① |----|
口口②口 |①---|
口③④口 |②---|
口口口口 |③-④-|
53
口①②口 |--①-|
③口口④ |②---|
口口口口 |--③-|
⑤口口口 |④-⑤-|
54
③③④④ |①---|
口口②口 |②---|
⑤⑤口口 |--③-|
口口口① |④-⑤-|
55
④口口④ |①---|
口③③口 |②---|
口口①① |③---|
口②②口 |④---|
56
口口口口 |①---|
口口③口 |--②-|
口②口口 |----|
①口口① |③---|
57
③③口口 |--①-|
口①口口 |----|
口口②口 |②---|
口口口口 |--③-|
58
口口口口 |--①-|
⑥口口③ |②-③-|
⑤⑦⑦② |④-⑤-|
④口口① |⑥-⑦-|
59
③②①③ |--①-|
口②①口 |②---|
口③③口 |----|
口口口口 |--③-|
60
口口口口 |----|
③①①② |①---|
口口口口 |②---|
②口口③ |③---|
61
④②①③ |①---|
口⑤⑤口 |②---|
③口口④ |③---|
口①②口 |④-⑤-|
62
口①②口 |----|
①口口② |①---|
口口口口 |②---|
③③口口 |③---|
63
口口口口 |①---|
口④⑤口 |----|
口②③口 |②-③-|
口口①① |④-⑤-|
64
③口口④ |--①-|
⑤口口⑥ |②-③-|
⑦口口口 |④-⑤-|
口①②口 |⑥-⑦-|
65
口②②口 |①-②-|
口④④口 |--③-|
口③③口 |--④-|
口⑤⑤① |--⑤-|
66
①口口④ |--①-|
⑤口口② |②-③-|
③口口⑥ |④-⑤-|
⑦口口口 |⑥-⑦-|
67
④③③④ |①---|
口②②口 |②---|
口④④口 |③---|
口口①① |--④-|
68
口口口口 |----|
③①①② |①---|
口口口口 |②---|
②口口③ |③---|
69
④②①③ |①---|
口⑤⑤口 |②---|
③口口④ |③---|
口①②口 |④-⑤-|
70
口①②口 |----|
①口口② |①---|
口口口口 |②---|
③③口口 |③---|
71
口②口② |①---|
③口③口 |②---|
口口④口 |③---|
口⑤①① |④-⑤-|
72
口口③口 |----|
口口口② |①---|
口口口口 |②---|
口口口① |③---|
73
口口⑤⑤ |①---|
口③②口 |②-③-|
口口口口 |--④-|
①口④口 |--⑤-|
74
①①口口 |----|
口口口口 |①-②-|
口⑥⑤口 |③-④-|
口④③② |⑤-⑥-|
75
口口①① |①-②-|
口③③口 |--③-|
口口口口
②口口口

⑤⑤⑤⑤
口口口口
口口口口 |--④-|
口④④口 |--⑤-|
76
口口口口 |----|
口口口口 |----|
口①①口 |①---|
口口口口 |----|
77
口②②口 |①---|
口①①口 |----|
口口口口 |②---|
口口口口 |----|
78
口口口口 |①---|
①③②① |--②-|
口口口口 |----|
①②③① |③---|
79
①①口口 |①---|
口口②② |②---|
口口口口
口口口口

口⑤⑤口
口口口口
③③口口 |③---|
口口④④ |④-⑤-|
80
口口口口 |--①-|
口口④③ |②---|
⑤口口口 |③-④-|
①②口口 |--⑤-|
81
④③②① |①-②-|
口口口⑧ |③-④-|
⑦⑥⑤⑧ |⑤-⑥-|
口口口口 |⑦-⑧-|
82
口①②口 |--①-|
口口口口 |②---|
口口口口 |③-④-|
③④⑤⑥ |⑤-⑥-|
83
①②③④ |①-②-|
口⑤⑥⑦ |③-④-|
⑧口口口 |⑤-⑥-|
⑧口口口 |⑦-⑧-|
84
口口口口 |--①-|
③④口口 |②---|
口口②① |③-④-|
口口口⑤ |--⑤-|
85
①②③④ |①-②-|
⑧口口口 |③-④-|
⑧⑤⑥⑦ |⑤-⑥-|
口口口口 |⑦-⑧-|
86
口口①口 |--①-|
口②③口 |②-③-|
口⑥⑦口 |④-⑤-|
口④⑤口 |⑥-⑦-|
87
①⑤口口 |①-②-|
口口⑥② |③-④-|
③⑦口口 |⑤-⑥-|
口口⑧④ |⑦-⑧-|
88
口口口口 |----|
口口口口 |----|
①口口口 |----|
口口口口 |--①-|
89
⑤⑤①① |①-②-|
②②⑥⑥ |③-④-|
⑦⑦③③ |⑤-⑥-|
④④⑧⑧ |⑦-⑧-|

accuracy: 100%
最終更新:2023年07月10日 01:50