アットウィキロゴ
鋳鉄の檻
小寺可南子,ランコ,SARAH by BEMANI Sound Team "Yvya"

EXTREME

Level: 9.2
BPM: 200
Notes: 830

1
口口口口 |----|
口口口口 |----|
口口口口 |----|
口口口口 |----|
2
①⑤口口 |①②③④|
口口⑥② |⑤⑥⑦⑧|
③⑦口口
口口⑧④

⑮口⑫口
⑮⑪口口
口口⑩⑭ |⑨⑩⑪⑫|
⑬⑨口口 |⑬⑭⑮-|
3
⑦口口口 |--①-|
口⑥②口 |②-③-|
⑤口口口 |④-⑤-|
口④③① |⑥-⑦-|
4
口⑤口③ |①-②-|
⑥口②口 |③-④-|
口⑦口口 |⑤-⑥-|
④⑧⑧① |⑦-⑧-|
5
④口口③ |--①-|
⑥②⑤⑦ |②-③-|
口口口① |④-⑤-|
⑥口口⑦ |⑥-⑦-|
6
口①⑦口 |--①-|
口⑥口口 |②-③④|
口③④⑤ |⑤-⑥-|
⑧口②⑧ |⑦-⑧-|
7
⑤口⑦口 |--①-|
口口④口 |②-③-|
口②⑥口 |④-⑤-|
口①③口 |⑥-⑦-|
8
⑦⑤口⑥ |①-②③|
⑤⑦⑥口 |④-⑤-|
⑨⑨⑧① |⑥-⑦-|
②③④⑧ |⑧-⑨-|
9
口⑥③口 |--①-|
口④口口 |②-③-|
口⑧口② |④-⑤-|
⑤⑦①口 |⑥-⑦⑧|
10
③⑦⑦② |①-②-|
③⑤⑥④ |③-④-|
①口②⑥ |⑤-⑥-|
⑤⑦⑦④ |--⑦-|
11
④口口② |--①-|
口⑦⑤③ |②-③-|
①口⑥口 |④-⑤-|
口口口口 |⑥-⑦-|
12
口⑤①口 |①-②-|
②口⑥口 |③-④-|
口⑦⑧③ |⑤-⑥-|
④口口⑧ |⑦-⑧-|
13
口口③口 |--①-|
口口⑥口 |②-③-|
④口口② |--④-|
口①口⑤ |⑤-⑥-|
14
口⑦口③ |①-②-|
①口口口 |③-④-|
口⑧⑥④ |⑤-⑥-|
②⑤⑧口 |⑦-⑧-|
15
④口口② |--①-|
口⑦⑤③ |②-③-|
①口⑥口 |④-⑤-|
口口口口 |⑥-⑦-|
16
⑧⑧①口 |①-②-|
②口⑦口 |③-④-|
口⑥口③ |⑤-⑥-|
④口⑤口 |⑦-⑧-|
17
口口⑤口 |--①②|
⑥口口① |③-④-|
口口②⑦ |⑤-⑥-|
⑧③口④ |⑦-⑧-|
18
口①口口 |①-②-|
⑤口②⑥ |③-④-|
⑤③口⑥ |----|
口口④口 |⑤-⑥-|
19
口口口口 |----|
口口口口 |----|
口口口口 |--①-|
①口口② |②---|
20
口②①口 |①---|
①③③② |----|
②③③① |②---|
口①②口 |--③-|
21
①口②口 |----|
口口口口 |----|
口口口口 |--①-|
口③口口 |②-③-|
22
口②口⑤ |①---|
口⑤口口 |②-③-|
口口口口 |--④-|
③口④① |--⑤-|
23
口口口口 |----|
口口口① |----|
②口口口 |--①-|
口口口③ |②-③-|
24
③①②② |①---|
①③口口 |----|
口口③① |②---|
②②①③ |--③-|
25
③口②② |----|
①口①③ |①---|
③①口① |②---|
②②口③ |③---|
26
口①②口 |①---|
③③③口 |----|
口③③③ |②---|
口②①口 |--③-|
27
①②③④ |----|
口口口口 |----|
口口口口 |①②③④|
⑧⑦⑥⑤ |⑤⑥⑦⑧|
28
⑥⑥口⑤ |①---|
②①④口 |②-③-|
口④①③ |④---|
口口⑥⑥ |⑤-⑥-|
29
口口口口 |--①-|
⑦③口④ |②-③-|
口口②⑥ |④-⑤-|
⑤①口口 |⑥-⑦-|
30
口口①① |①---|
口③③口 |②-③-|
②②口口
口口口口

⑤口口⑤
口口口口
口口口口 |--④-|
口④④口 |--⑤-|
31
口口③口 |--①-|
②⑥口③ |②-③-|
口②①⑤ |--④-|
④口口① |⑤-⑥-|
32
口③③① |①---|
口口口口 |②-③-|
口口口口
口口口②

⑦口口⑦
口口口口
口口口口 |④-⑤-|
④⑥⑤口 |⑥-⑦-|
33
口③③口 |①-②-|
口⑤⑤口 |③-④-|
②⑦⑦① |⑤-⑥-|
⑥口⑧④ |⑦-⑧-|
34
①口口① |①-②-|
①口口① |③-④-|
④口口口
口②口③

⑧⑤⑤⑧
⑧⑤⑤⑧
口口口⑥ |⑤-⑥-|
⑦口口口 |⑦-⑧-|
35
⑪⑪⑧口 |--①②|
⑪⑤⑥口 |③④⑤⑥|
⑦③④⑩ |⑦⑧⑨⑩|
⑨①②口 |⑪---|
36
④口口② |①---|
口②④③ |②---|
口③口口 |③---|
口口口① |④---|
37
④②②⑤ |①---|
①口口口 |②---|
④口①⑤ |③---|
口③③口 |④-⑤-|
38
口①②③ |----|
①②③口 |①---|
口口口口 |②---|
口口口口 |③---|
39
④口口⑤ |①---|
④口口⑤ |②---|
③②①口 |③---|
口③②① |④-⑤-|
40
口④②⑥ |--①-|
⑦②④口 |②-③-|
⑥口口口 |④-⑤-|
口③⑤① |⑥-⑦-|
41
①⑦⑧⑦ |①-②-|
口⑥④② |③-④-|
口⑤③① |⑤-⑥-|
口③⑤口 |⑦-⑧-|
42
口口口口 |①---|
①口口口 |----|
口口口口
①口口①

口③③口
③口口②
②口口② |②---|
口口口口 |--③-|
43
口口口口 |----|
口①②口 |①---|
口①②口 |②---|
②口口① |----|
44
②④口口 |①---|
口口口③ |②---|
口③口口 |③---|
口①①口 |④---|
45
④口口⑤ |①---|
口②③口 |②---|
④口①⑤ |③---|
①③口口 |④-⑤-|
46
口口口口 |----|
口②口③ |①---|
口口②口 |②---|
口口口① |③---|
47
口③①③ |①---|
⑤口口④ |②---|
⑤口口④ |③---|
①口②口 |④-⑤-|
48
口口口口 |--①-|
口③⑥口 |②-③-|
口⑤②口 |④-⑤-|
④口⑦① |⑥-⑦-|
49
⑧⑧口⑥ |①-②-|
⑤口⑦② |③-④-|
④口口① |⑤-⑥-|
口③口口 |⑦-⑧-|
50
口口口口 |--①②|
⑥①口⑧ |③-④-|
口⑤②口 |⑤-⑥-|
④口⑦③ |⑦-⑧-|
51
①⑥口③ |①-②-|
口②④口 |③-④-|
⑤口口⑦ |⑤-⑥-|
口⑧⑧口 |⑦-⑧-|
52
①口④口 |----|
口口口口 |①---|
口口口口 |②---|
②口口③ |③-④-|
53
③口口口 |--①-|
⑤④口② |②---|
口①口口 |--③-|
口口口口 |④-⑤-|
54
口③④② |①---|
⑤口口口 |②---|
③口口④ |--③-|
口⑤口① |④-⑤-|
55
③④口② |①---|
④③②① |②---|
④②③口 |③---|
②口①③ |④---|
56
④⑧①⑦ |①-②-|
口④口① |③-④-|
口口⑦① |⑤-⑥-|
⑥②③⑤ |⑦-⑧-|
57
口口①口 |①-②-|
②④③⑤ |③-④-|
口⑥⑦口 |⑤-⑥-|
⑧②⑤⑧ |⑦-⑧-|
58
口②④口 |--①-|
⑥⑦⑦口 |②-③-|
①⑦⑦③ |④-⑤-|
口⑤口口 |⑥-⑦-|
59
②②③① |--①-|
口③③① |②---|
①③③口 |----|
①③②② |--③-|
60
①①口② |----|
①口③② |①---|
②③口① |②---|
②口①① |③---|
61
口②①口 |①---|
②①口口 |②---|
口口①②
口①②口

③口⑤口
口⑤④③
③④⑤口 |③---|
口⑤口③ |④-⑤-|
62
②②③① |----|
①口口口 |①---|
口口口① |②---|
①③②② |③---|
63
口⑤口口 |①---|
④①口口 |----|
口③①口 |②-③-|
②口口口 |④-⑤-|
64
口口口口 |--①-|
口口口① |②-③-|
③⑥②口 |④-⑤-|
⑤④口⑦ |⑥-⑦-|
65
①③①口 |①-②-|
③口口口 |--③-|
口口口②
口口②口

口口⑤口
口口口口
口④④口 |--④-|
口⑤口口 |--⑤-|
66
口④口① |--①-|
⑤口②口 |②-③-|
口⑥口③ |④-⑤-|
口口口⑦ |⑥-⑦-|
67
③口①口 |①-②-|
口①口口 |③-④-|
口口口③
④口②口

口口⑥⑤
口⑥⑥口
⑤⑥⑥口 |⑤---|
口⑥口口 |--⑥-|
68
①①口② |----|
①口③② |①---|
②③口① |②---|
②口①① |③---|
69
口②①口 |①---|
②①口口 |②---|
口口①②
口①②口

③口⑤口
口⑤④③
③④⑤口 |③---|
口⑤口③ |④-⑤-|
70
②②③① |----|
①口口口 |①---|
口口口① |②---|
①③②② |③---|
71
③口口⑤ |①---|
口①②⑤ |②---|
④②①口 |③---|
④口口③ |④-⑤-|
72
③②②口 |----|
口口口③ |①---|
③口口口 |②---|
口①①③ |③---|
73
④④③③ |①---|
④口①口 |②-③-|
口①口⑤ |--④-|
②②⑤⑤ |--⑤-|
74
口口①口 |----|
口⑥口② |①-②-|
⑤口③口 |③-④-|
口④口口 |⑤-⑥-|
75
③①口① |①-②-|
③口③口 |--③-|
口③口③
②口②③

口⑤⑤⑤
口口口口
口口④口 |--④-|
口④口口 |--⑤-|
76
口口口口 |①---|
口口口口 |----|
口②口② |②---|
①口①口 |----|
77
口②口② |①---|
①口①口 |----|
口口口口 |②---|
口口口口 |----|
78
③口口③ |①---|
①①①① |--②-|
③②②③ |----|
②①①② |③---|
79
口①①口 |①---|
口口口口 |②---|
口口口口
②①①口

口⑤⑤口
口③④口
口④③口 |③---|
口⑤⑤口 |④-⑤-|
80
④口口② |--①-|
口⑦⑤③ |②-③-|
①口⑥口 |④-⑤-|
口口口口 |⑥-⑦-|
81
口⑤①口 |①-②-|
②口⑥口 |③-④-|
口⑦⑧③ |⑤-⑥-|
④口口⑧ |⑦-⑧-|
82
口⑦口③ |--①-|
口口⑥口 |②-③-|
⑤口口② |④-⑤-|
口①④口 |⑥-⑦-|
83
④口①③ |①-②-|
②④口① |③-④-|
口口③口
②口口口

口⑧⑧口
口口⑦口
口⑥口⑤ |⑤-⑥-|
口⑥⑦⑤ |⑦-⑧-|
84
④口口② |--①-|
口⑦⑤③ |②-③-|
①口⑥口 |④-⑤-|
口口口口 |⑥-⑦-|
85
口⑤①口 |①-②-|
②口⑥口 |③-④-|
口⑦⑧③ |⑤-⑥-|
④口口⑧ |⑦-⑧-|
86
口⑦口③ |--①-|
口口⑥口 |②-③-|
⑤口口② |④-⑤-|
口①④口 |⑥-⑦-|
87
④口①③ |①-②-|
②④口① |③-④-|
口口③口
②口口口

口⑧⑧口
口口⑦口
口⑥口⑤ |⑤-⑥-|
口⑥⑦⑤ |⑦-⑧-|
88
口口口口 |----|
①②②① |----|
口口口口 |----|
口口口口 |--①②|
89
②②③③ |①-②-|
口口口口 |③-④-|
口①①口
④④口口

口口口口
⑧⑧⑧⑧
⑥⑧⑧⑦ |⑤-⑥-|
口口⑤⑤ |⑦-⑧-|

accuracy: 100%
最終更新:2023年07月10日 02:02