アットウィキロゴ
チュッチュ♪マチュピチュ

Level: 9.8
BPM: 130

①①口口 |①---|
||口口 |----|
||口口 |②-③-|
∧∧口口 |④-⑤-|

22口口
口⑤③口
口口口口
口④口口

口口VV |①---|
口口|| |----|
口口|| |②-③-|
口口①① |④-⑤-|

口口口口
口③口口
口口口⑤
④口22

口口①① |①---|
口④口| |②-③-④-|
口②③| |⑤---|
口口口∧ |⑥---|

口口口口
口口⑤口
⑥口口⑥
口⑥⑥口

⑤①①2 |①---|
①⑤口① |--②-|
口③③④ |②-③-|
口口④口 |④-⑤---|

口②②口 |①---|
②口口② |②---|
口②②口 |③-④⑤-⑥|
①口口① |----|

口口口③
口④⑤口
口口口③
⑥⑥口口

①①③口 |①-②-|
①口口③ |③-④⑤-⑥|
⑥口⑤② |--⑦-|
⑥④②② |⑧-⑨---|

口⑧口⑧
⑦口⑧口
口⑧口口
口口⑨口

②口①口 |①---|
口②口② |②---|
②口②口 |③-④⑤-⑥|
口①口② |----|

口口⑤③
口口③口
口⑥口口
④⑥口口

④①③③ |①-②-|
①⑥口② |③-④⑤-⑥|
①口⑤② |-----⑦|
口⑥②口 |--⑧-|

口⑧⑧口
⑧口口⑧
口⑦口口
⑦口⑦口

②口③② |①---|
⑥②②③ |②---|
②④⑤② |③-④⑤-⑥|
口⑥口① |----|

①口口② |①②③④|
⑦⑤⑥⑧ |⑤⑥⑦⑧|
③口口④ |--⑨-|
⑤⑦⑧⑥ |⑩-⑪---|

⑩口口⑩
口口口口
口⑨⑨⑪
口口口口

口②②口 |①---|
口②口② |②---|
②②口口 |③-④⑤-⑥|
②②①① |----|

③口口口
③口⑤口
口口口④
口口⑥⑥

③④③① |①-②-|
②①口⑤ |③--④-⑤|
④③①③ |-----⑦|
②②⑤口 |--⑧-|

⑧口口⑧
⑦⑧⑧口
口口⑦口
口⑦口口

口口③口 |①-②-|
口口口口 |③-④-|
①②口① |⑤--⑥|
①口④① |--⑦-|

口⑥口⑥
⑤口口口
口口口口
⑦⑤口⑦

⑤③⑤⑦ |--①-|
①⑤①③ |②-③-|
②④⑥② |④-⑤-|
④⑥④⑥ |⑥-⑦-|

口③口口 |①-②-|
①口口口 |③-④-|
①口口口 |⑤--⑥|
④口②口 |--⑦-|

⑥口口⑥
口口口口
口⑤⑤口
口口⑦⑦

口③①③ |--①-|
②③③③ |②----③|
②①③口 |---④-⑤|
口②口口 |--⑥⑦--|

④口⑤口
口口口口
口口口口
口⑥⑦口

口口口口 |①---|
口口口口 |----|
①②口① |----|
①口口① |②---|

口口口口 |①---|
口口①口 |----|
口口口口 |②-③-|
口口口口 |④-⑤--⑥|

口④⑤口
②口③⑤
④⑥口⑥
⑥②⑥③

口③⑤口 |----|
③④口口 |①-②-|
口口②⑤ |③-④--⑤|
⑦①⑥① |--⑥--⑦|

③口口口 |①-②-|
②③口口 |③----④|
①②口口 |--⑤-|
口①口口 |⑥-⑦---|

口⑥口⑥
口口⑥口
口口口口
⑦⑤⑤④

①⑥⑥③ |①--②|
①①③③ |--③-|
②①③④ |--④-|
④⑤⑤② |⑤-⑥---|

①口口② |①----②|
①口口② |----|
口①②口 |③-④-|
口口口口 |⑤-⑥--⑦|

⑦⑤⑦口
⑤口⑥口
③⑦口④
口③④⑥

口⑤口③ |----|
⑥②④口 |①-②-|
⑤口③口 |③-④--⑤|
①⑥①⑦ |--⑥--⑦|

口口口③ |①-②-|
口口③② |③----④|
口口②① |--⑤-|
④口①口 |⑥-⑦---|

⑥口⑥口
口⑥口口
口口口口
口⑤⑤⑦

③口口① |①--②|
③口口① |--③-|
口①①② |--④-|
②③③口 |⑤-⑥---|

口④⑥⑥
口口④口
④⑤⑤口
口口口④

口口口口 |①--②|
口②②口 |----|
②口口② |--③-|
口①①口 |④-⑤-|

口口口口
口口⑤④
口③口口
④③③④

③③⑥⑥ |①-②-|
⑦①口④ |③--④-⑤|
③口②⑥ |--⑥---|
口⑤⑧口 |⑦-⑧-|

②①④⑤ |①-②-|
口②⑤口 |③--④-⑤|
③②⑤口 |--⑥-|
②口口⑤ |⑦-⑧-|

⑧口口口
口口口口
口口口⑥
口⑦口口

口①①② |①-②-|
①口④① |③--④-⑤|
⑤口口⑤ |--⑥-|
③⑤⑤口 |⑦-⑧-|

口口⑧口
⑥口口口
口口⑦口
口口口口

③②口③ |①--②|
②③③① |--③-|
③①口③ |----|
口口②① |④-⑤-|

口口④口
⑤口口④
口⑤口口
口口口口

②②⑤口 |①-②-|
口④③口 |③--④-⑤|
⑤口④口 |--⑥---|
①口③① |⑦---|

⑦⑦口⑥
⑦口口口
口⑦口⑥
⑦⑦口⑥

口口口口 |①--②|
③①①① |--③-|
口口①② |④-⑤-|
③口①② |⑥-⑦---|

口④④⑥
口口⑥口
⑦⑤⑤口
口⑦口口

口②②口 |①---|
②口口② |②---|
口②②口 |③-④⑤-⑥|
①口口① |----|

口口口③
口④⑤口
口口口③
⑥⑥口口

①①③口 |①-②-|
①口口③ |③-④⑤-⑥|
⑥口⑤② |--⑦-|
⑥④②② |⑧-⑨---|

口⑧口⑧
⑦口⑧口
口⑧口口
口口⑨口

②口①口 |①---|
口②口② |②---|
②口②口 |③-④⑤-⑥|
口①口② |----|

口口⑤③
口口③口
口⑥口口
④⑥口口

③①③口 |①-②-|
①④口② |③④⑤⑥|
①口⑤② |-----⑦|
口⑥②⑥ |--⑧-|

口⑧⑧口
⑧口口⑧
口⑦口口
⑦口⑦口

②口③② |①---|
⑥②②③ |②---|
②④⑤② |③-④⑤-⑥|
口⑥口① |----|

①①④口 |①-②-|
⑤③③④ |③--④-⑤|
③口口③ |--⑥-|
口⑤②② |⑦-⑧---|

⑦口口⑦
口口口口
口⑥⑥⑧
口口口口

口②②口 |①---|
口②口② |②---|
②②口口 |③-④⑤-⑥|
②②①① |----|

③口口口
③口⑤口
口口口④
口口⑥⑥

③④③① |①-②-|
②①口⑤ |③--④-⑤|
④③①③ |-----⑦|
②②⑤口 |--⑧-|

⑧口口⑧
⑦⑧⑧口
口口⑦口
口⑦口口

⑤②②口 |①-②-|
口⑤口③ |③-④--⑤|
①口⑤① |--⑥-⑦⑧|
①④口① |⑨-⑩-|

口⑩⑩⑥
⑦口⑥口
⑧⑥口口
⑨口口口

③⑦口④ |①-②--③|
⑦⑤⑥① |④-⑤⑥-⑦|
口③④① |--⑧---|
口②②口 |⑨-⑩---|

口口⑩⑩
口口口⑧
口口口口
⑨⑨口⑧

④⑩口⑪ |①②③④⑤⑥|
口⑧③⑤ |⑦⑧⑨⑩⑪⑫|
⑥②⑨口 |⑬⑭⑮⑯⑰⑱|
⑫口①⑦ |⑲⑳ABCD|

B口⑮口
⑭D⑰A
⑳⑱C⑬
口⑯⑲口

口①②① |①--②|
②口口口 |--③-|
口口口② |--④-|
③③③③ |⑤-⑥⑦-⑧|

口⑦口口
口④④⑥
⑤④④口
口口⑧口

①口④④ |①-②-|
①口口口 |③-④-|
口口口② |⑤-⑥⑦-⑧|
③③口② |⑨-⑩⑪-⑫|

口口口⑫
⑪⑦口⑥
⑤⑨口口
口口⑧⑩

口②口口 |①----②|
口口口③ |③---|
口口口③ |④-⑤-|
①①口口 |⑥-⑦---|

④口④⑥
④④④口
④⑤④口
口⑦⑦口

口②②口 |①---|
口口口口 |②---|
口口口口 |③-④⑤-⑥|
①口口① |----|

口口口③
口④⑤口
口口口口
⑥口口口

口①③口 |①-②-|
①口口口 |③-④⑤-⑥|
口口⑤② |--⑦-|
⑥④②口 |⑧-⑨---|

口⑧口⑧
⑦口⑧口
口⑧口口
口口⑨口

②口①口 |①---|
口口口口 |②---|
口口口口 |③-④⑤-⑥|
口①口② |-----⑦|

口口⑤③
口口口口
口⑥口口
④口⑦⑦

③口④④ |--①-|
①③②② |②-③--④|
①口口口 |--⑤--⑥|
口口口口 |-⑦----|

口⑥口口
⑥口口口
口⑤⑦口
口⑤⑦口

②口③② |①---|
⑥②②③ |②---|
②④⑤② |③-④⑤-⑥|
口⑥口① |----|

①口口② |①②③④|
⑦⑤⑥⑧ |⑤⑥⑦⑧|
③口口④ |--⑨-|
⑤⑦⑧⑥ |⑩-⑪---|

⑩口口⑩
口口口口
口⑨⑨⑪
口口口口

口②②口 |①---|
口②口② |②---|
②②口口 |③-④⑤-⑥|
②②①① |----|

③口口口
③口⑤口
口口口④
口口⑥⑥

③④③① |①-②-|
②①口⑤ |③--④-⑤|
④③①③ |-----⑦|
②②⑤口 |--⑧-|

⑧口口⑧
⑦⑧⑧口
口口⑦口
口⑦口口

口口③口 |①-②-|
口口口口 |③-④-|
①②口① |⑤--⑥|
①口④① |--⑦-|

口⑥口⑥
⑤口口口
口口口口
⑦⑤口⑦

⑤③⑤⑦ |--①-|
①⑤①③ |②-③-|
②④⑥② |④-⑤-|
④⑥④⑥ |⑥-⑦-|

口口⑥口 |①-②③-④|
①⑦②④ |⑤-⑥⑦-⑧|
①③口口 |⑨-⑩⑪-⑫|
⑤口口⑧ |⑬-⑭⑮--|

⑨口口⑫
口口⑭口
⑪⑬口口
⑮⑮⑩口

③①③口 |--①-|
③③③② |②----③|
口③①② |---④-⑤|
口口②口 |--⑥⑦--|

口⑤口④
口口口口
口口口口
口⑦⑥口

口口口口 |①②③④|
口口口④ |⑤---|
口②③口 |----|
①口口口 |⑥---|

口口⑤⑤
口口||
口口||
口口∧∧

口口66
口口口口
口口口口
口⑥⑥口

①①口口 |①---|
||口口 |----|
||口口 |②-③-|
∧∧口口 |④-⑤-|

22口③
口口④口
口⑤口口
口口口口

口口口口 |①---|
①――< |----|
①――< |----|
①――< |----|

口口口口 |----|
1口口口 |----|
2口口口 |----|
口口口口 |----①②|

口口口口 |①---|
口口口口 |----|
口口口口 |----|
1口口口 |----|
最終更新:2022年08月29日 04:30