アットウィキロゴ
Globe Glitter
Sana,ATSUMI UEDA by BEMANI Sound Team "PON"

BASIC

Level: 5
BPM: 190
Notes: 370

1
口口口口 |----|
口口口口 |----|
口①口口 |----|
口口口口 |--①-|
2
①口口口 |----|
口口口口 |--①-|
口口②口 |----|
口口口口 |--②-|
3
口口口① |----|
口口口口 |--①-|
②口口口 |----|
口口口口 |--②-|
4
口②②口 |----|
口口口口 |--①-|
口口口① |----|
口口口口 |--②-|
5
口口口口 |----|
口①①口 |----|
口①①口 |①---|
口口口口 |----|
6
口口口口 |①---|
③④④口 |②---|
口口口② |③---|
①口口口 |--④-|
7
口口口口 |--①-|
口口口口 |--②-|
口①①口 |----|
口②②口 |----|
8
口④④③ |①---|
②口口口 |②---|
口口口① |③---|
口口口口 |--④-|
9
口口口口 |--①-|
口①①口 |--②-|
口②②口 |----|
口口口口 |----|
10
口③口口 |①---|
口口②口 |②---|
④口口④ |③---|
①口口口 |--④-|
11
②口③② |--①-|
①口口① |--②-|
口口口口 |----|
口口口口 |--③-|
12
口口口口 |--①-|
口①口口 |--②-|
口③④口 |--③-|
口口②口 |④---|
13
口口口口 |①---|
①口口① |----|
口口口口 |----|
口口口口 |----|
14
口口口口 |①---|
口②④口 |②---|
口口口口 |③---|
①口口③ |④---|
15
①口口② |①---|
口口口口 |②---|
③口口④ |③---|
口口口口 |④---|
16
口口口口 |①---|
口口口口 |②---|
口③④口 |③---|
口①②口 |④---|
17
口口口口 |①---|
①口口① |----|
口口口口 |----|
口口口口 |----|
18
口口口口 |①---|
口口口口 |----|
口口口口 |----|
口①①口 |----|
19
口口口口 |----|
①②口口 |----|
口口口口 |--①-|
口口口口 |--②-|
20
口口口口 |--①-|
口口①② |--②-|
口③③口 |----|
口口口口 |--③-|
21
口口口口 |----|
口口口口 |----|
口口口口 |----|
口口口口 |----|
22
口口口口 |①---|
口口口口 |----|
①口口① |----|
口口口口 |----|
23
①口口① |①---|
口口口② |----|
口口口口 |----|
口口口口 |--②-|
24
口口口口 |--①-|
③②①口 |--②-|
口④④口 |--③-|
口口口口 |--④-|
25
口口口口 |----|
口口口口 |----|
口口口口 |----|
口口口口 |----|
26
口口口口 |①---|
②口口② |--②-|
口口口口 |----|
①③口① |③---|
27
口②②口 |①---|
口口口口 |--②-|
①口口① |----|
口口③口 |③---|
28
②口口② |①---|
口口口口 |--②-|
口①①口 |----|
口③口口 |③---|
29
②口口② |①---|
口口口口 |--②-|
①口口① |----|
口口③口 |③---|
30
口②②口 |①---|
口口口口 |--②-|
③口口④ |----|
①口口① |③-④-|
31
②口口② |①---|
口③④口 |--②-|
口口口口 |----|
口①①口 |③-④-|
32
④口口口 |①---|
③口口口 |②---|
②口口口 |③---|
①口口口 |④---|
33
口口口④ |①---|
口口口③ |②---|
口口口② |③---|
口口口① |④---|
34
口④④口 |①---|
口③③口 |②---|
口②②口 |③---|
口①①口 |④---|
35
①口口① |①---|
①②②① |----|
口②②口 |②---|
口口口口 |----|
36
口口口口 |①---|
口④④③ |②---|
②口口口 |③---|
口口口① |--④-|
37
口口口口 |--①-|
口口口口 |--②-|
口①①口 |----|
口②②口 |----|
38
③④④口 |①---|
口口口② |②---|
①口口口 |③---|
口口口口 |--④-|
39
口口口口 |--①-|
口①①口 |--②-|
口②②口 |----|
口口口口 |----|
40
口口③口 |①---|
口②口口 |②---|
④口口④ |③---|
口口口① |--④-|
41
②③口② |--①-|
①口口① |--②-|
口口口口 |----|
口口口口 |--③-|
42
口口口口 |--①-|
口口①口 |--②-|
口④③口 |--③-|
口②口口 |④---|
43
口口口口 |①---|
①口口① |----|
口口口口 |----|
口口口口 |----|
44
④口口③ |①---|
④口口口 |②---|
口②口口 |③---|
口口①口 |--④-|
45
口①②口 |--①-|
口①②口 |--②-|
口口口口 |----|
口口口口 |----|
46
③口口④ |①---|
口口口④ |②---|
口口②口 |③---|
口①口口 |--④-|
47
口②①口 |--①-|
口②①口 |--②-|
口口口口 |----|
口口口口 |----|
48
口口口③ |①---|
④②口口 |②---|
④口①口 |③---|
口口口口 |--④-|
49
口③口口 |--①-|
口①②口 |--②-|
口①②口 |----|
口口口口 |--③-|
50
口口口口 |--①-|
口④③① |--②-|
口口口口 |--③-|
口②口口 |④---|
51
口口口口 |①---|
口口口口 |----|
②口口② |②---|
①口口① |----|
52
口①①口 |①---|
口口口口 |----|
口口口口 |----|
口口口口 |----|
53
口口口口 |①---|
②口口② |----|
口①①口 |----|
②口口② |②---|
54
口②④口 |①---|
口口口口 |②---|
①口口③ |③---|
口口口口 |④---|
55
口口口口 |①---|
口①口口 |②---|
口口②口 |③---|
口③口口 |----|
56
口口口口 |①---|
口④②口 |②---|
口口口口 |③---|
③口口① |④---|
57
口③②① |①---|
口口口口 |②---|
口口口口 |③---|
口口口口 |----|
58
④口口口 |①---|
口③口口 |②---|
②口口口 |③---|
口①口口 |④---|
59
口口①① |①---|
②②口口 |----|
口口口口 |②---|
口口口口 |----|
60
口口口口 |①---|
口口口口 |----|
口口①① |②---|
②②口口 |----|
61
④③②① |①---|
④③②① |②---|
口口口口 |③---|
口口口口 |④---|
62
口口口口 |①---|
口②②口 |----|
口口口口 |②---|
②①①② |----|
63
②口口口 |①---|
口口口口 |----|
②①①口 |----|
口口口口 |--②-|
64
口①②口 |--①-|
口口口口 |--②-|
口①②口 |----|
口口口口 |----|
65
口口口② |①---|
口口口口 |----|
口口口② |----|
口①①口 |--②-|
66
口②①口 |--①-|
口口口口 |--②-|
口②①口 |----|
口口口口 |----|
67
②口口口 |①---|
口口口口 |----|
②口口口 |----|
①口口① |--②-|
68
口①②③ |--①-|
口④④口 |--②-|
口①②③ |--③-|
口④④口 |--④-|
69
口口口口 |----|
口口口口 |----|
口口口口 |----|
口口口口 |----|
70
①口口① |----|
口口口口 |----|
①口口① |----|
口口口口 |--①-|
71
口①①口 |----|
口①①口 |----|
口口口口 |----|
口口口口 |--①-|
72
口口口口 |----|
口口口口 |----|
口口口口 |----|
口口口口 |----|
73
口④④③ |①---|
②口口口 |②---|
口口口口 |③---|
口①口口 |--④-|
74
口口口口 |--①-|
口①①口 |--②-|
口②②口 |----|
口口口口 |----|
75
③口口口 |①---|
口口口② |②---|
口④④口 |③---|
口口①口 |--④-|
76
口②②口 |--①-|
口①①口 |--②-|
口口口口 |----|
口口口口 |----|
77
口口口① |①---|
②口口口 |②---|
④口口④ |③---|
口③口口 |--④-|
78
②口③② |--①-|
①口口① |--②-|
口口口口 |----|
口口口口 |--③-|
79
口口口口 |--①-|
口①口口 |--②-|
口③④口 |--③-|
口口②口 |④---|
80
口③④口 |----|
口①②口 |①-②-|
口口口口 |----|
口口口口 |③-④-|
81
①口口① |----|
口口口口 |----|
①口口① |----|
口口口口 |①---|
82
口口口口 |----|
口口口口 |----|
口口口口 |----|
口口口口 |----|
83
口④④口 |①---|
口③口口 |②---|
口口②口 |③---|
口①口口 |④---|
84
②②②② |----|
①口口① |--①-|
①口口① |----|
口口口口 |--②-|
85
口口口口 |----|
口①口口 |①---|
口口②口 |②---|
口③口口 |③---|
86
口④口口 |①---|
口口口③ |②---|
②口口口 |③---|
口口①口 |④---|
87
口口口口 |①---|
口②②口 |----|
口①①口 |②---|
口口口口 |----|
88
③口口③ |--①-|
②口口② |--②-|
①口口① |--③-|
口口口口 |----|
89
口③①口 |①---|
口①③口 |--②-|
口口口② |----|
口口口口 |③---|
90
口口口口 |--①-|
口②②口 |----|
①②②口 |----|
口口口口 |--②-|

accuracy: 100%
最終更新:2023年07月11日 02:20