アットウィキロゴ
Globe Glitter
Sana,ATSUMI UEDA by BEMANI Sound Team "PON"

ADVANCED

Level: 8
BPM: 190
Notes: 542

1
口口口口 |----|
口口口口 |----|
口口口口 |----|
①①口口 |--①-|
2
口口①① |----|
口口口口 |--①-|
口口口口 |----|
口口②② |--②-|
3
①①口口 |----|
②口口口 |--①-|
口②口口 |----|
口口口口 |--②-|
4
口②②口 |----|
口口口① |--①-|
②口①② |----|
口口口口 |--②-|
5
口口口口 |----|
①口口② |----|
口口口口 |①-②-|
①口口② |----|
6
口口口④ |①-②-|
⑤口②⑤ |--③-|
口③口口 |--④-|
口①口口 |--⑤-|
7
口口⑤口 |--①-|
口④口口 |--②-|
①口口① |--③-|
②口③② |④-⑤-|
8
①④④① |--①-|
口口口③ |--②-|
口口口口 |--③-|
口②口口 |--④-|
9
⑤口口口 |--①-|
口①①口 |--②-|
口②②④ |--③-|
③口口口 |④-⑤-|
10
口①①口 |--①-|
口口口③ |--②-|
口④④口 |--③-|
口②口口 |--④-|
11
③②②③ |--①-|
口①①口 |--②-|
③口口③ |----|
口口口口 |--③-|
12
口⑤口口 |--①-|
①口④口 |②-③-|
口②口口 |--④-|
口口③口 |⑤---|
13
口口口口 |①---|
①④口① |----|
①口③① |--②-|
口②口口 |③-④-|
14
口④口① |①-②-|
②口⑤口 |③-④-|
口⑥口⑦ |⑤-⑥-|
口口③口 |⑦---|
15
①口④口 |①-②-|
口⑤口② |③-④-|
⑦口⑥口 |⑤-⑥-|
口③口口 |⑦---|
16
④②口口 |①-②-|
口口⑤口 |③-④-|
口⑥口③ |⑤-⑥-|
⑧口①⑦ |⑦-⑧-|
17
④③②① |①-②-|
⑤⑥⑦⑧ |③-④-|
口口口口 |⑤-⑥-|
口口口口 |⑦-⑧-|
18
口口口口 |①---|
口口口口 |----|
口①①口 |----|
口口口口 |----|
19
①口口② |----|
口口口口 |----|
口①②口 |--①-|
口口口口 |--②-|
20
口①②口 |--①-|
口口④口 |--②-|
①③口② |----|
口口④口 |③-④-|
21
口口口口 |----|
口③口口 |----|
口口②口 |--①-|
口①口口 |②-③-|
22
①口口① |--①-|
口口口口 |----|
口口口口 |----|
口口口口 |----|
23
口口口口 |----|
③口②口 |----|
口口口口 |--①-|
①③口口 |②-③-|
24
口②③口 |--①-|
口④④① |--②-|
②④④③ |--③-|
口口①口 |--④-|
25
口口口口 |----|
口③口口 |----|
口口口② |--①-|
口①口口 |②-③-|
26
①口口① |--①-|
口⑤④③ |--②-|
口②②口 |--③-|
口口口口 |④-⑤-|
27
口口口口 |----|
口口③口 |----|
②口口口 |--①-|
口口①口 |②-③-|
28
①口口① |--①-|
③④⑤口 |--②-|
口②②口 |--③-|
口口口口 |④-⑤-|
29
口③口口 |----|
口口口② |----|
口①口口 |--①-|
口口口口 |②-③-|
30
①口口① |--①-|
口③③口 |--②-|
口口口口 |--③-|
②④④② |--④-|
31
口③③口 |--①-|
②④④② |--②-|
①④④① |--③-|
口口口口 |--④-|
32
口口口口 |----|
口口口口 |----|
口口口口 |----|
口口口口 |----|
33
①口口② |----|
①口口② |----|
①口口② |----|
口口口口 |①-②-|
34
口①①口 |----|
口①①口 |----|
口①①口 |----|
口口口口 |--①-|
35
口口口口 |----|
口③口口 |----|
口口②口 |--①-|
①口口口 |②-③-|
36
①③口① |--①-|
口④口④ |--②-|
口口口② |--③-|
口口口口 |--④-|
37
口口口口 |--①-|
口口口⑤ |--②-|
①④①口 |--③-|
口②③② |④-⑤-|
38
口①①③ |--①-|
④口④口 |--②-|
口口口口 |--③-|
口②口口 |--④-|
39
口口口口 |--①-|
口口⑤口 |--②-|
④①口① |--③-|
②口②③ |④-⑤-|
40
①口③① |--①-|
口口口口 |--②-|
口④口④ |--③-|
口②口口 |--④-|
41
②③③② |--①-|
①口①口 |--②-|
③口口③ |----|
口口口口 |--③-|
42
口⑤口口 |--①-|
①口④口 |②-③-|
口②口口 |--④-|
口口③口 |⑤---|
43
口口口口 |①---|
①口④① |----|
①③口① |--②-|
口口口② |③-④-|
44
①口③① |--①-|
④口④口 |--②-|
②口口口 |--③-|
口口口口 |--④-|
45
口口口口 |--①-|
⑤口口口 |--②-|
口①④① |--③-|
②③②口 |④-⑤-|
46
③①①口 |--①-|
口④口④ |--②-|
口口口口 |--③-|
口口②口 |--④-|
47
口口口口 |--①-|
口⑤口口 |--②-|
①口①④ |--③-|
③②口② |④-⑤-|
48
①③口① |--①-|
口口口口 |--②-|
④口④口 |--③-|
口口②口 |--④-|
49
②③③② |--①-|
口①口① |--②-|
③口口③ |----|
口口口口 |--③-|
50
⑥口⑤口 |--①-|
口④口① |②-③-|
口口②口 |--④-|
口③口口 |⑤-⑥-|
51
④口口口 |----|
口③口② |①-②-|
④口①口 |----|
口口口② |③-④-|
52
口①①口 |----|
①口口① |----|
口口口口 |----|
口口口口 |①---|
53
口口口口 |①--②|
口⑤⑤口 |--③-|
①③④② |-④--|
③①②④ |⑤---|
54
③④⑤⑥ |①---|
①口口② |②---|
①口口② |③-④-|
口口口口 |⑤-⑥-|
55
口口口口 |①-②-|
⑤②①口 |③-④-|
⑥③④口 |--⑤-|
⑦口口口 |⑥-⑦-|
56
⑦⑥⑤④ |--①-|
口口③口 |②-③-|
口②口口 |④-⑤-|
口口①口 |⑥-⑦-|
57
⑦口口口 |①-②-|
口②口① |③-④-|
④口③⑤ |--⑤-|
口⑥口口 |⑥-⑦-|
58
口口口④ |--①-|
口口⑤口 |②-③-|
口②③⑥ |④-⑤-|
①口⑦口 |⑥-⑦-|
59
①①②② |①---|
①①②② |----|
口口口口 |②---|
口口口口 |----|
60
口口口口 |①---|
口口口口 |----|
①①②② |②---|
①①②② |----|
61
①口口③ |①-②-|
⑤口口⑦ |③-④-|
②口口④ |⑤-⑥-|
⑥口口⑧ |⑦-⑧-|
62
④口口④ |①--②|
口③③口 |--③-|
口②②口 |④---|
口①①口 |----|
63
②口口口 |①---|
口口口口 |----|
口口口② |----|
口①①口 |--②-|
64
口口口① |--①-|
口②②口 |--②-|
①③④⑤ |--③-|
口口口口 |④-⑤-|
65
口②口口 |--①-|
口口口口 |----|
口口②口 |----|
①口口① |--②-|
66
口口①口 |--①-|
②口口② |--②-|
口①口口 |--③-|
口⑤④③ |④-⑤-|
67
口②口口 |--①-|
口①①口 |----|
口口②口 |----|
口口口口 |--②-|
68
②口①③ |--①-|
口④④口 |--②-|
③①口② |--③-|
口口口口 |--④-|
69
口口口口 |----|
口口口口 |----|
口口口口 |----|
口口口口 |----|
70
口口口口 |----|
①口口① |----|
口口口口 |----|
口①①口 |--①-|
71
①口口① |----|
口①①口 |----|
①口口① |----|
口口口口 |--①-|
72
口口口口 |----|
口③口口 |----|
口口②口 |--①-|
①口口口 |②-③-|
73
①口口① |--①-|
口口④③ |--②-|
口④口口 |--③-|
口②口口 |--④-|
74
口口口② |--①-|
①④口⑤ |--②-|
口口口① |--③-|
②口③口 |④-⑤-|
75
口①①③ |--①-|
④口口口 |--②-|
②口口④ |--③-|
口口口口 |--④-|
76
②⑤①口 |--①-|
口口口口 |--②-|
口③口口 |--③-|
口①④② |④-⑤-|
77
口口口① |--①-|
口口③口 |--②-|
口④④口 |--③-|
①②口口 |--④-|
78
①③③② |--①-|
口口口口 |--②-|
口口口口 |----|
②口口① |--③-|
79
口口⑤口 |--①-|
①⑥口④ |②-③-|
口②口口 |--④-|
口口③口 |⑤-⑥-|
80
口口口口 |----|
②④②④ |①-②-|
口口口口 |----|
口①③口 |③-④-|
81
①口①口 |----|
口口口口 |----|
口②口② |----|
口口口口 |①-②-|
82
口口口口 |----|
①口①口 |--①-|
口口口口 |----|
①口①口 |----|
83
①⑤⑧③ |①-②-|
口口口口 |③-④-|
②⑥⑦④ |⑤-⑥-|
口口口口 |⑦-⑧-|
84
口口口口 |-①--|
①④④② |②-③-|
口口口口 |----|
口③③口 |--④-|
85
⑨口口⑧ |--①-|
⑦口口⑥ |②③④⑤|
⑤④③② |⑥-⑦-|
①口口口 |⑧-⑨-|
86
口①口口 |--①-|
口口②⑧ |②-③-|
⑦⑥⑤④ |--④⑤|
口③口口 |⑥⑦⑧-|
87
口⑦③④ |--①-|
②口口口 |②-③-|
口口口⑥ |④-⑤-|
①⑤⑦口 |⑥-⑦-|
88
③口口③ |--①-|
口②口① |--②-|
③口口③ |--③-|
①口口② |----|
89
口①③口 |①---|
①③①③ |--②-|
口口口口 |----|
口口口② |③---|
90
口②②口 |--①-|
②口口② |----|
口②②口 |----|
①口口口 |--②-|

accuracy: 100%
最終更新:2023年07月11日 02:41