アットウィキロゴ
Globe Glitter
Sana,ATSUMI UEDA by BEMANI Sound Team "PON"

EXTREME

Level: 10.4
BPM: 190
Notes: 1017

1
口口口口 |----|
口口口口 |----|
口①口口 |----|
①口①口 |--①-|
2
口①口① |----|
口口①② |--①-|
口口口口 |----|
口②口② |--②-|
3
①口①口 |----|
②口口口 |--①-|
①②②口 |----|
口②口口 |--②-|
4
②口①② |----|
口①①口 |--①-|
口②②① |----|
口口口口 |--②-|
5
口③⑧⑫ |①②③④|
⑤⑩⑩② |⑤⑥⑦⑧|
①⑪口⑥ |⑨-⑩-|
⑦⑨⑨④ |⑪-⑫-|
6
②口口口 |①-②-|
⑤口口④ |--③-|
①⑤①口 |--④-|
⑤口口③ |--⑤-|
7
④⑤②① |--①-|
口②①④ |--②-|
③口②① |--③-|
口②⑤③ |④-⑤-|
8
⑤口口④ |①-②-|
②⑤②口 |--③-|
⑤口口③ |--④-|
①口口口 |--⑤-|
9
口②⑤④ |--①-|
④口②① |--②-|
口②①③ |--③-|
③⑤②① |④-⑤-|
10
②口口口 |①-②-|
⑤口口④ |--③-|
①口②口 |--④-|
⑤口⑤③ |--⑤-|
11
②①口① |--①-|
口③②⑤ |--②-|
口②④① |--③-|
口口口② |④-⑤-|
12
③③口口 |--①-|
①⑤口⑤ |②-③-|
①口口② |--④-|
④口④② |⑤---|
13
③口②⑩ |①-②-|
⑨口口⑧ |③-④-|
⑦①④⑥ |⑤-⑥⑦|
⑤⑤口口 |⑧⑨⑩-|
14
⑧⑦⑥⑩ |①-②-|
⑪口⑤口 |③④⑤⑥|
⑫①④⑨ |⑦⑧⑨-|
口口③② |⑩-⑪⑫|
15
⑩⑧口⑨ |①②③-|
⑫④⑦⑬ |④-⑤⑥|
口⑥⑪口 |⑦⑧⑨⑩|
①②③⑤ |⑪⑫⑬-|
16
口⑥⑦⑧ |①-②-|
口⑤⑬⑫ |③④⑤⑥|
⑨④⑪⑩ |⑦⑧⑨-|
②③①口 |⑩⑪⑫⑬|
17
⑦⑧⑥⑨ |①②③④|
⑧⑤⑩口 |⑤-⑥-|
口⑦⑨⑩ |⑦-⑧-|
④③②① |⑨-⑩-|
18
③口口口 |①---|
口口口口 |----|
②口口口 |--②-|
口①①口 |--③-|
19
口口口口 |----|
①口口② |----|
②口口① |--①-|
口①②口 |--②-|
20
①口口口 |--①-|
④①①④ |--②-|
④②②④ |----|
口口③② |③-④-|
21
口②⑤② |----|
口口②口 |--①-|
口④口口 |②-③-|
①口口③ |④-⑤-|
22
口口口④ |①-②-|
②口口口 |--③-|
口口③口 |--④-|
⑤①①口 |--⑤-|
23
口②②④ |①-②-|
⑤①①口 |--③-|
口口⑥口 |--④-|
口口③口 |⑤-⑥-|
24
③口④⑤ |①-②-|
⑤④③④ |--③-|
②③⑤② |--④-|
①⑤口① |--⑤-|
25
口口口⑥ |①-②-|
口⑤④口 |--③-|
③口⑥② |--④-|
⑤口①④ |⑤-⑥-|
26
⑥③③⑥ |①-②-|
②④⑤③ |--③-|
⑥②⑤⑥ |--④-|
④①①口 |⑤-⑥-|
27
⑤②②口 |①---|
口③⑤④ |--②-|
口口④口 |--③-|
③①①口 |④-⑤-|
28
口③③② |①-②-|
③口口口 |--③-|
①②口①
口①①口

⑥口口口
口④⑤⑥
⑥口⑤口 |--④-|
④口口⑥ |⑤-⑥-|
29
⑤②②⑤ |①---|
口④③口 |--②-|
口口⑤③ |--③-|
④①①口 |④-⑤-|
30
口③③口 |①-②-|
②⑤④② |--③-|
③③口④ |--④-|
⑤①①⑤ |--⑤-|
31
②③③④ |①-②-|
④⑤④② |--③-|
口④②口 |--④-|
⑤①①⑤ |--⑤-|
32
④⑥③口 |①-②-|
口口⑤⑦ |③-④-|
②⑧口⑤ |⑤-⑥-|
口①①口 |⑦-⑧-|
33
口⑤口④ |①-②-|
①③口⑥ |③-④-|
⑤口②口 |⑤-⑥-|
①⑦口⑧ |⑦-⑧-|
34
③⑮④⑭ |①②③④|
⑦⑨⑧⑩ |⑤⑥⑦⑧|
⑪⑤⑥② |⑨⑩⑪⑫|
①⑬⑫⑯ |⑬⑭⑮⑯|
35
③口④口 |①②③④|
⑦⑧⑨⑩ |⑤-⑥-⑦⑧⑨⑩|
口⑤⑥②
①口口口

口⑬口⑬
口口口口
⑪口口口 |⑪-⑫-|
⑭⑫⑫⑭ |⑬-⑭-|
36
①③①③ |--①-|
④口口④ |--②-|
②①②① |--③-|
口④口口 |--④-|
37
①⑤①④ |--①-|
④②②⑤ |--②-|
③口口① |--③-|
②口③② |④-⑤-|
38
①④①④ |--①-|
③口③口 |--②-|
口①④① |--③-|
口②口② |--④-|
39
①口②口 |--①-|
④②⑤④ |--②-|
①⑤口② |--③-|
②③①③ |④-⑤-|
40
③①③① |--①-|
口口④口 |--②-|
①④①口 |--③-|
②口②④ |--④-|
41
③②口② |--①-|
②①③② |--②-|
②③②① |----|
口①口③ |--③-|
42
口④①④ |--①-|
②①口② |--②-|
③口③① |--③-|
①②②口 |④---|
43
口口口口 |①---|
口①①口 |----|
口口口口
①口口①

③口③口
口口口口
口口口口 |--②-|
④②②④ |③-④-|
44
③①③① |--①-|
④口口④ |--②-|
①②①② |--③-|
口口④口 |--④-|
45
④①⑤① |--①-|
⑤②②④ |--②-|
①口口③ |--③-|
②③口② |④-⑤-|
46
④①④① |--①-|
口③口③ |--②-|
①④①口 |--③-|
②口②口 |--④-|
47
口②口① |--①-|
④⑤②④ |--②-|
②口⑤① |--③-|
③①③② |④-⑤-|
48
①③①③ |--①-|
口④口口 |--②-|
口①④① |--③-|
④②口② |--④-|
49
②口②③ |--①-|
②③①② |--②-|
①②③② |----|
③口①口 |--③-|
50
④①④口 |--①-|
②口①② |--②-|
①③口③ |--③-|
口②②① |④---|
51
口③口④ |①-②-|
口口口口 |③-④-|
①口②口
口口口口

⑥口口口
⑤⑧⑦口
⑩口口⑪ |⑤-⑥⑦|
口口口⑨ |⑧⑨⑩⑪|
52
口口④⑥ |①-②③|
口口口② |④⑤⑥-|
口⑤口口
③①①口

⑦⑧口口
⑨⑩口口
口口⑪⑫ |⑦⑧⑨⑩|
口口⑬⑭ |⑪⑫⑬⑭|
53
③口②③ |①--②|
口口口② |--③-|
①口口口
口①口口

口④口口
口口口口
口⑥⑤口 |-④--|
④⑧⑦口 |⑤⑥⑦⑧|
54
④⑬⑦③ |①-②-|
②⑧⑭⑩ |③④⑤⑥|
⑨口⑪① |⑦⑧⑨⑩|
⑥⑫口⑤ |⑪⑫⑬⑭|
55
⑤口口口 |①②③④|
②口口口 |⑤⑥⑦-|
口③口①
⑦口④⑥

口⑩⑨口
口口⑪口
⑧口口⑫ |--⑧⑨|
口口口口 |⑩⑪⑫-|
56
③⑨口⑧ |--①②|
⑫①⑩② |③④⑤⑥|
口⑬④⑪ |⑦⑧⑨⑩|
⑦⑤⑭⑥ |⑪⑫⑬⑭|
57
⑫口①口 |①②③④|
⑩②⑨④ |⑤⑥⑦-|
③口⑤⑪ |--⑧⑨|
⑧⑥口⑦ |⑩⑪⑫-|
58
⑭⑥⑩① |--①②|
⑬口⑨⑤ |③④⑤⑥|
⑫②⑧口 |⑦⑧⑨⑩|
⑪④⑦③ |⑪⑫⑬⑭|
59
口⑧口① |①-②-③-|
⑩②⑦⑤ |④-⑤-⑥-|
口④⑨③ |⑦-⑧-⑨-|
⑫⑥口⑪ |⑩-⑪-⑫-|
60
④口①口 |①-②-③-|
口②⑤口 |④-⑤-⑥-|
口口口口
口⑥③口

口口口口
⑧⑫口⑦
口⑩⑨口 |⑦-⑧-⑨-|
口口口⑪ |⑩-⑪-⑫-|
61
⑥②口① |①②③④|
口口⑦口 |⑤⑥⑦⑧|
④口口③
口⑧⑤口

口⑯⑬口
⑩口口⑪
口⑭⑨口 |⑨⑩⑪⑫|
⑫口口⑮ |⑬⑭⑮⑯|
62
④⑪⑪① |①②③④|
⑧②⑤⑧ |⑤⑥⑦-|
④口⑦① |⑧-⑨-|
⑨⑥③⑩ |⑩-⑪-|
63
①口②① |--①-|
②①①口 |----|
口口口② |----|
口②口口 |--②-|
64
⑤①⑤口 |--①-|
口②②① |--②-|
①②②口 |--③-|
口④①③ |④-⑤-|
65
口②口① |--①-|
①口口② |----|
②口口① |----|
①口②口 |--②-|
66
⑤口①⑤ |--①-|
①②②口 |--②-|
口②②① |--③-|
③①口④ |④-⑤-|
67
口①①② |--①-|
口②口口 |----|
①口②① |----|
②口口口 |--②-|
68
①③⑤口 |--①-|
②⑤①② |--②-|
②①⑤② |--③-|
口⑤④① |④-⑤-|
69
口口口口 |----|
口口①口 |----|
口①口① |①---|
口口口口 |----|
70
③④④口 |①---|
口④④口 |----|
①④①口 |--②-|
①①①② |③-④-|
71
口口口口 |----|
口口口口 |----|
口口②口 |----|
①口口口 |--①②|
72
⑨⑤⑧⑪ |①②③④|
①⑪⑥② |⑤⑥⑦⑧|
⑩⑦⑫⑩ |⑨-⑩-|
口③④⑫ |⑪-⑫-|
73
口口④口 |①-②-|
③⑦⑧② |③-④-|
口口口⑥ |⑤-⑥-|
①⑤②⑧ |⑦-⑧-|
74
③口④② |①-②-|
口口口口 |③-④-|
①口②口
口口④口

口⑦口口
口口⑦⑥
⑧⑤口⑧ |⑤-⑥-|
口⑥口口 |⑦-⑧-|
75
口口④② |①-②-|
③⑦口⑥ |③-④-|
口口②⑧ |⑤-⑥-|
①⑤⑧口 |⑦-⑧-|
76
③⑧④② |①-②-|
⑧⑥⑥口 |③-④-|
①⑤②⑧ |⑤-⑥-|
⑦⑦口④ |⑦-⑧-|
77
口口口① |--①-|
⑦⑤⑥② |②-③-|
①③①口 |④-⑤-|
口⑦④口 |⑥-⑦-|
78
④②⑥③ |①-②-|
⑦口⑦口 |③-④-|
②口⑤① |⑤---|
④口口口 |⑥-⑦-|
79
⑦②口⑦ |①-②-|
口⑦⑦③ |③-④-|
②④口⑧ |⑤-⑥-|
④⑥⑤① |⑦-⑧-|
80
口③④口 |①-②-|
口口口口 |③-④-|
①口②口
口口口口

口口口口
⑤⑦口⑧
⑪口口口 |⑤-⑥⑦|
⑤⑨⑩⑥ |⑧⑨⑩⑪|
81
④⑥⑦① |①②③④|
⑧⑩⑤⑬ |⑤⑥⑦⑧|
⑭②③⑪ |⑨⑩⑪⑫|
⑫⑯⑮⑨ |⑬⑭⑮⑯|
82
④⑥口③ |①②③④|
口⑧⑤口 |⑤⑥⑦⑧|
口②①口
口口口⑦

口口⑨口
⑭口口⑬
⑫⑯⑮⑪ |⑨⑩⑪⑫|
⑩口口口 |⑬⑭⑮⑯|
83
②⑩⑨① |①②③④|
⑫⑥⑤⑪ |⑤⑥⑦⑧|
⑬⑭⑮⑯ |⑨⑩⑪⑫|
⑧④③⑦ |⑬⑭⑮⑯--|
84
①④④② |-①--|
④③③④ |②-③-|
口口口口 |----|
③②①③ |--④-|
85
口口口⑦ |--①-|
⑧口口口 |②③④⑤|
⑤④③② |⑥-⑦-|
⑥①①⑨ |⑧-⑨-|
86
②⑧⑦口 |--①-|
口口⑥口 |②-③-|
口口⑤① |--④⑤|
③口④口 |⑥⑦⑧-|
87
⑬口口② |--①②|
⑨⑤口⑥ |③④⑤⑥|
①⑪⑫⑧ |⑦⑧⑨⑩|
③⑦⑩④ |⑪⑫⑬-|
88
口③③① |--①-|
口口②口 |--②-|
③口口③ |--③-|
①②口② |----|
89
①③③① |①---|
①③③① |--②-|
③①①③ |----|
②口口口 |③---|
90
口⑦⑦⑥ |--①-|
⑦口口⑦ |--②③|
⑤⑦⑦口 |④-⑤-|
②③④① |⑥-⑦-|

accuracy: 100%
最終更新:2023年07月11日 03:13